<?xml version="1.0" standalone="no"?>
<!DOCTYPE svg PUBLIC "-//W3C//DTD SVG 1.1//EN" "http://www.w3.org/Graphics/SVG/1.1/DTD/svg11.dtd" >
<svg xmlns="http://www.w3.org/2000/svg">
<metadata>Generated by IcoMoon</metadata>
<defs>
<font id="starsmenu-icon" horiz-adv-x="1024">
<font-face units-per-em="1024" ascent="960" descent="-64" />
<missing-glyph horiz-adv-x="1024" />
<glyph unicode="&#x20;" horiz-adv-x="512" d="" />
<glyph unicode="&#xe900;" glyph-name="down-arrow2" d="M479.089-50.365c9.086-9.089 20.998-13.635 32.911-13.635s23.825 4.546 32.914 13.635l232.727 232.727c18.178 18.174 18.178 47.647 0 65.825-18.178 18.174-47.65 18.174-65.825 0l-153.271-153.271v818.539c0 25.706-20.84 46.545-46.545 46.545s-46.545-20.84-46.545-46.545v-818.539l-153.271 153.271c-18.178 18.174-47.647 18.174-65.825 0s-18.178-47.647 0-65.825l232.73-232.727z" />
<glyph unicode="&#xe901;" glyph-name="down-arrow-12" d="M787.729 233.084c-7.202 17.392-24.176 28.734-42.999 28.734h-186.182v651.636c0 25.706-20.843 46.545-46.545 46.545-25.709 0-46.545-20.84-46.545-46.545v-651.636h-186.185c-18.826 0-35.8-11.342-43.005-28.734-7.199-17.392-3.218-37.413 10.091-50.725l232.727-232.727c9.092-9.089 20.998-13.632 32.914-13.632 11.909 0 23.825 4.543 32.908 13.635l232.727 232.727c13.318 13.312 17.299 33.33 10.094 50.722z" />
<glyph unicode="&#xe902;" glyph-name="down-arrow-4" d="M1014.688 650.472c-15.425 20.567-44.603 24.734-65.163 9.309l-437.515-328.143-437.534 328.143c-20.567 15.425-49.738 11.252-65.163-9.309-15.425-20.564-11.255-49.741 9.309-65.163l465.464-349.089c8.276-6.206 18.1-9.309 27.927-9.309 9.824 0 19.651 3.103 27.927 9.309l465.439 349.089c20.564 15.422 24.734 44.596 9.309 65.163z" />
<glyph unicode="&#xe903;" glyph-name="down-arrow-6" d="M977.455 960h-930.909c-25.706 0-46.545-20.84-46.545-46.545v-930.909c0-25.706 20.84-46.545 46.545-46.545h930.909c25.706 0 46.545 20.84 46.545 46.545v930.909c0 25.706-20.84 46.545-46.545 46.545zM793.153 539.21l-248.236-248.242c-8.729-8.729-20.567-13.635-32.911-13.635-12.347 0-24.182 4.903-32.914 13.635l-248.249 248.242c-18.178 18.174-18.178 47.647 0 65.825 18.174 18.178 47.647 18.178 65.825 0l215.338-215.329 215.325 215.329c18.174 18.178 47.647 18.178 65.825 0s18.178-47.65-0.003-65.825z" />
<glyph unicode="&#xe904;" glyph-name="down-arrow-8" d="M1021.372 649.587c-6.541 18.652-24.154 31.139-43.92 31.139h-930.903c-19.769 0-37.379-12.487-43.92-31.139-6.544-18.652-0.59-39.405 14.845-51.752l465.464-372.361c8.499-6.799 18.789-10.2 29.075-10.2 10.29 0 20.576 3.401 29.078 10.2l465.439 372.361c15.434 12.35 21.386 33.1 14.842 51.752z" />
<glyph unicode="&#xe905;" glyph-name="left-arrow2" d="M977.455 494.545h-818.539l153.268 153.271c18.178 18.174 18.178 47.647 0 65.825-18.174 18.174-47.647 18.174-65.825 0l-232.727-232.727c-18.178-18.174-18.178-47.647 0-65.825l232.727-232.727c9.092-9.089 21.001-13.635 32.914-13.635s23.825 4.546 32.911 13.635c18.178 18.174 18.178 47.647 0 65.825l-153.268 153.268h818.539c25.706 0 46.545 20.84 46.545 46.545s-20.84 46.545-46.545 46.545z" />
<glyph unicode="&#xe906;" glyph-name="left-arrow-1" d="M977.455 494.545h-651.636v186.182c0 18.826-11.338 35.8-28.734 43.002-17.396 7.205-37.419 3.221-50.725-10.091l-232.727-232.727c-18.178-18.178-18.178-47.647 0-65.825l232.727-232.727c8.906-8.906 20.809-13.635 32.923-13.635 5.995 0 12.043 1.161 17.799 3.544 17.392 7.205 28.734 24.179 28.734 43.002v186.182h651.636c25.706 0 46.545 20.84 46.545 46.545s-20.837 46.549-46.542 46.549z" />
<glyph unicode="&#xe907;" glyph-name="left-arrow-4" d="M723.777 10.475l-328.143 437.512 328.143 437.537c15.425 20.567 11.255 49.741-9.309 65.163-20.564 15.425-49.741 11.252-65.163-9.309l-349.089-465.464c-12.412-16.548-12.412-39.306 0-55.854l349.089-465.439c9.145-12.195 23.121-18.621 37.273-18.621 9.716 0 19.518 3.035 27.89 9.312 20.567 15.425 24.734 44.6 9.309 65.163z" />
<glyph unicode="&#xe908;" glyph-name="left-arrow-6" d="M977.455 960h-930.909c-25.706 0-46.545-20.84-46.545-46.545v-930.909c0-25.706 20.84-46.545 46.545-46.545h930.909c25.706 0 46.545 20.84 46.545 46.545v930.909c0 25.706-20.84 46.545-46.545 46.545zM669.032 232.668c18.178-18.174 18.178-47.647 0-65.825-9.086-9.086-20.998-13.632-32.911-13.632s-23.825 4.543-32.911 13.635l-248.242 248.236c-8.729 8.729-13.635 20.567-13.635 32.911s4.903 24.185 13.635 32.914l248.242 248.249c18.174 18.178 47.647 18.178 65.825 0 18.178-18.174 18.178-47.647 0-65.825l-215.329-215.338 215.325-215.325z" />
<glyph unicode="&#xe909;" glyph-name="left-arrow-8" d="M713.587 957.372c-18.652 6.544-39.402 0.59-51.752-14.845l-372.361-465.464c-13.597-16.998-13.597-41.155 0.003-58.154l372.361-465.439c9.005-11.258 22.481-17.47 36.355-17.47 5.145 0 10.352 0.856 15.397 2.628 18.655 6.541 31.139 24.154 31.139 43.92v930.903c-0.003 19.769-12.487 37.379-31.142 43.92z" />
<glyph unicode="&#xe90a;" glyph-name="right-arrow" d="M46.545 401.455h818.539l-153.271-153.271c-18.178-18.174-18.178-47.647 0-65.825 9.089-9.086 21.001-13.632 32.914-13.632s23.825 4.546 32.911 13.635l232.727 232.727c18.178 18.174 18.178 47.647 0 65.825l-232.727 232.727c-18.174 18.174-47.647 18.174-65.825 0s-18.178-47.647 0-65.825l153.271-153.271h-818.539c-25.706 0-46.545-20.84-46.545-46.545s20.84-46.545 46.545-46.545z" />
<glyph unicode="&#xe90b;" glyph-name="right-arrow-1" d="M1010.365 480.911l-232.727 232.73c-13.309 13.315-33.336 17.29-50.725 10.091-17.392-7.205-28.734-24.179-28.734-43.002v-186.185h-651.633c-25.706 0-46.545-20.84-46.545-46.545s20.84-46.545 46.545-46.545h651.636v-186.182c0-18.826 11.338-35.8 28.734-43.002 5.756-2.386 11.807-3.547 17.802-3.547 12.111 0 24.017 4.729 32.92 13.638l232.727 232.727c18.181 18.174 18.181 47.644 0 65.821z" />
<glyph unicode="&#xe90c;" glyph-name="right-arrow-5" d="M723.784 475.94l-349.089 465.439c-15.428 20.567-44.596 24.731-65.163 9.309-20.567-15.425-24.734-44.6-9.309-65.163l328.143-437.515-328.143-437.534c-15.425-20.564-11.255-49.741 9.309-65.163 8.372-6.28 18.171-9.312 27.89-9.312 14.153 0 28.129 6.429 37.273 18.621l349.089 465.464c12.412 16.548 12.412 39.306 0 55.854z" />
<glyph unicode="&#xe90d;" glyph-name="right-arrow-7" d="M977.455 960h-930.909c-25.706 0-46.545-20.84-46.545-46.545v-930.909c0-25.706 20.84-46.545 46.545-46.545h930.909c25.706 0 46.545 20.84 46.545 46.545v930.909c0 25.706-20.84 46.545-46.545 46.545zM669.032 415.092l-248.242-248.249c-9.086-9.086-20.998-13.632-32.911-13.632s-23.825 4.543-32.911 13.635c-18.178 18.174-18.178 47.647 0 65.825l215.332 215.338-215.332 215.325c-18.178 18.174-18.178 47.647 0 65.825 18.174 18.178 47.647 18.178 65.825 0l248.242-248.236c8.729-8.729 13.635-20.567 13.635-32.911-0.003-12.35-4.906-24.191-13.638-32.92z" />
<glyph unicode="&#xe90e;" glyph-name="right-arrow-9" d="M734.526 477.091l-372.361 465.439c-12.347 15.434-33.1 21.389-51.752 14.845-18.655-6.541-31.139-24.154-31.139-43.92v-930.903c0-19.769 12.483-37.379 31.139-43.92 5.049-1.772 10.249-2.628 15.397-2.628 13.874 0 27.347 6.215 36.355 17.473l372.361 465.464c13.6 16.995 13.6 41.152 0 58.15z" />
<glyph unicode="&#xe90f;" glyph-name="up-arrow2" d="M312.183 647.817l153.271 153.271v-818.542c0-25.706 20.84-46.545 46.545-46.545s46.545 20.84 46.545 46.545v818.542l153.271-153.271c9.086-9.089 20.998-13.635 32.911-13.635s23.825 4.546 32.911 13.635c18.178 18.174 18.178 47.647 0 65.825l-232.727 232.727c-18.174 18.178-47.647 18.178-65.825 0l-232.727-232.727c-18.178-18.174-18.178-47.647 0-65.825 18.178-18.174 47.65-18.174 65.825 0z" />
<glyph unicode="&#xe910;" glyph-name="up-arrow-12" d="M777.638 713.638l-232.727 232.727c-18.174 18.178-47.647 18.178-65.825 0l-232.727-232.727c-13.312-13.312-17.293-33.333-10.091-50.725 7.205-17.389 24.182-28.731 43.005-28.731h186.182v-651.636c0-25.706 20.84-46.545 46.545-46.545s46.545 20.84 46.545 46.545v651.636h186.182c18.823 0 35.8 11.342 43.002 28.734 7.205 17.392 3.224 37.41-10.091 50.722z" />
<glyph unicode="&#xe911;" glyph-name="up-arrow-4" d="M1005.379 310.695l-465.464 349.089c-16.551 12.412-39.306 12.412-55.854 0l-465.439-349.089c-20.564-15.425-24.734-44.6-9.309-65.163 9.145-12.195 23.121-18.621 37.273-18.621 9.716 0 19.518 3.035 27.89 9.312l437.515 328.143 437.534-328.143c20.57-15.428 49.741-11.255 65.163 9.309 15.425 20.564 11.255 49.738-9.309 65.163z" />
<glyph unicode="&#xe912;" glyph-name="up-arrow-6" d="M977.455 960h-930.909c-25.706 0-46.545-20.84-46.545-46.545v-930.909c0-25.706 20.84-46.545 46.545-46.545h930.909c25.706 0 46.545 20.84 46.545 46.545v930.909c0 25.706-20.84 46.545-46.545 46.545zM793.153 290.968c-9.086-9.089-20.998-13.635-32.911-13.635s-23.825 4.543-32.911 13.635l-215.338 215.329-215.325-215.329c-18.174-18.178-47.647-18.178-65.825 0-18.178 18.174-18.178 47.647 0 65.825l248.236 248.242c8.729 8.729 20.567 13.635 32.911 13.635 12.347 0 24.182-4.903 32.914-13.635l248.249-248.242c18.181-18.178 18.181-47.65 0-65.825z" />
<glyph unicode="&#xe913;" glyph-name="up-arrow-8" d="M1006.527 298.168l-465.464 372.361c-17.001 13.597-41.152 13.594-58.154-0.003l-465.439-372.361c-15.434-12.347-21.389-33.1-14.845-51.752 6.541-18.652 24.154-31.139 43.92-31.139h930.903c19.769 0 37.379 12.487 43.92 31.139 6.547 18.655 0.596 39.405-14.842 51.755z" />
<glyph unicode="&#xe914;" glyph-name="addthis" d="M0 960v-1024h1024v1024h-1024zM866.462 346.712h-253.173v-253.173h-202.576v253.173h-253.173v202.576h253.173v253.173h202.576v-253.173h253.173v-202.576z" />
<glyph unicode="&#xe915;" glyph-name="amazon" d="M530.941 530.557c-23.122-2.174-73.895-9.205-98.891-29.953-32.977-27.364-46.305-119.27 25.24-119.27 11.16 0 20.896 1.125 29.421 3.029 32.95 7.317 56.192 36.907 56.192 70.665v64.64c0 6.446-5.543 11.5-11.962 10.888zM0 960v-1024h1024v1024h-1024zM485.342 708.267c-42.913 0-70.352-46.53-79.8-65.64-2.343-4.762-7.542-7.375-12.767-6.493l-86.095 14.548c-7.13 1.193-11.642 8.323-9.567 15.254 10.836 36.2 53.093 134.918 191.74 134.918 169.775 0 185.911-109.433 185.911-136.086v-221.699c0 0-0.707-18.941 16.134-42.794 5.399-7.611 9.767-13.668 13.229-18.353 5.962-8.079 4.956-19.31-2.318-26.239l-62.779-59.811c-7.4-7.006-18.923-7.393-26.658-0.756-8.005 6.862-17.892 16.015-25.289 25.197-6.905 8.543-12.254 16.303-16.010 22.159-3.081 4.787-9.936 5.005-13.33 0.468-15.16-20.46-56.023-64.028-128.5-64.028-94.712 0-157.84 76.476-157.84 142.41 0 65.952 42.088 150.148 133.287 169.088 64.003 13.278 105.546 12.767 124.638 11.255 6.592-0.513 12.155 4.713 12.155 11.305v51.087c0.002-0.002-2.098 44.185-56.14 44.21zM718.29 152.638c-55.436-30.857-109.46-57.493-237.809-57.493-155.959 0-280.646 99.229-305.175 129.4-24.558 30.178-16.503 45.601-16.503 45.601s9.468 18.603 36.126 0c26.658-18.572 151.541-106.284 275.715-106.284 124.176 0 210.444 32.982 238.515 44.919 28.046 11.91 59.635 26.827 67.352 12.356 7.713-14.482-2.811-37.622-58.222-68.498zM797.014 151.756c-16.355 8.86 0.538 26.851 7.368 48.405 6.837 21.578 10.524 40.519 0 49.798-10.517 9.299-25.778 4.931-60.511 0.731-34.712-4.224-32.615 11.575-32.615 11.575s0 6.293 7.886 11.568c7.886 5.251 114.533 49.287 139.966 9.986 30.592-47.262-42.983-142.41-62.095-132.062z" />
<glyph unicode="&#xe916;" glyph-name="bebo" d="M0 960v-1024h1024v1024h-1024zM579.811 99.944c-69.409-10.681-139.203-10.681-204.269 21.025-111.598 54.385-170.81 143.92-173.362 268.862-1.125 55.28-0.23 110.608-0.23 165.935 0.050 62.851 0 125.691 0.050 188.531 0 23.491 10.294 41.212 31.28 51.7 20.975 10.488 41.527 7.983 60.288-5.768 15.072-11.057 21.216-26.696 21.169-45.313-0.097-117.368-0.050-234.737-0.050-352.107 0-92.995 59.442-166.745 151.010-181.732 56.851-9.254 113.547-6.473 164.157 27.639 61.098 41.165 91.095 116.619 74.79 188.677-16.341 72.153-75.927 127.723-148.928 137.315-20.273 2.638-110.736 2.080-131.241 2.309-32.273 0.423-57.274 22.487-59.162 52.726-1.983 31.667 19.33 56.901 52.546 59.876 2.732 0.245 93.218 0.644 95.932 0.644 170.151 0 273.946-100.352 302.609-234.957 33.493-157.64-77.356-320.937-236.589-345.36z" />
<glyph unicode="&#xe917;" glyph-name="behance" d="M408 414.095c-12.596 9.556-29.397 14.309-50.063 14.309h-104.378v-120.080h102.454c9.477 0 18.466 0.839 26.923 2.732 8.586 1.877 16.202 4.852 22.623 9.25 6.421 4.229 11.739 10.026 15.605 17.399 3.88 7.308 5.739 16.8 5.739 28.265 0 22.478-6.322 38.43-18.902 48.126zM392.959 506.168c11.043 8.061 16.398 21.385 16.398 39.657 0 10.148-1.778 18.533-5.354 25.040-3.702 6.509-8.602 11.602-14.795 15.166-6.144 3.711-13.082 6.275-21.135 7.656-7.906 1.546-16.202 2.152-24.693 2.152h-89.826v-101.896h97.152c17.014 0 31.098 4.035 42.254 12.225zM0 960v-1024h1024v1024h-1024zM620.332 640.868h176.758v-43.031h-176.758v43.031zM509.986 303.499c-8.536-16.213-20.163-29.349-34.492-39.488-14.44-10.229-31.031-17.73-49.611-22.614-18.369-4.884-37.449-7.341-56.984-7.341h-211.36v436.064h205.59c20.86 0 39.682-1.803 56.887-5.532 17.109-3.63 31.71-9.686 44.048-17.989 12.144-8.305 21.653-19.348 28.458-33.263 6.646-13.706 9.979-30.871 9.979-51.164 0-21.952-4.98-40.287-14.941-54.945-10.042-14.633-24.788-26.642-44.5-35.964 26.842-7.713 46.717-21.297 59.894-40.611 13.244-19.447 19.728-42.713 19.728-69.994-0.002-22.112-4.238-41.154-12.695-57.159zM865.91 371.049h-227.839c0-24.959 8.44-48.592 21.475-61.276 12.983-12.686 31.758-19.064 56.077-19.064 17.496 0 32.615 4.422 45.292 13.235 12.565 8.804 20.212 18.216 23.172 27.99h76.372c-12.272-38.007-30.9-65.14-56.304-81.474-25.112-16.404-55.742-24.578-91.426-24.578-24.871 0-47.25 4.026-67.35 11.957-20.084 8.030-36.869 19.283-50.984 33.95-13.762 14.739-24.45 32.154-32.066 52.618-7.535 20.352-11.336 42.884-11.336 67.303 0 23.608 3.945 45.666 11.658 66.049 7.875 20.455 18.758 38.104 33.070 52.908 14.343 14.885 31.352 26.633 51.162 35.21 19.809 8.548 41.653 12.848 65.847 12.848 26.712 0 50.111-5.14 70.163-15.612 19.985-10.326 36.367-24.322 49.238-41.842 12.871-17.489 22.024-37.492 27.749-59.928 5.676-22.397 7.665-45.796 6.031-70.294zM710.125 493.241c-13.857 0-25.323-2.329-34.505-7.082-8.975-4.69-16.332-10.526-21.959-17.399-5.595-6.986-9.412-14.359-11.626-22.242-2.23-7.681-3.556-14.651-3.961-20.813h141.103c-2.071 22.114-9.639 38.462-19.987 49.958-10.303 11.41-27.767 17.579-49.064 17.579z" />
<glyph unicode="&#xe918;" glyph-name="bing" d="M512 544.974c-124.595 0-225.62-72.371-225.62-161.542 0-89.327 101.025-161.812 225.62-161.812 124.624 0 225.645 72.573 225.645 161.812 0.002 89.171-101.020 161.542-225.645 161.542zM512 276.47c-82.354-0.117-149.173 47.736-149.173 106.96 0 59.012 66.819 106.777 149.173 106.777 82.381 0 148.989-47.766 148.989-106.777 0.002-59.252-66.605-106.96-148.989-106.96zM0 960v-1024h1024v1024h-1024zM512 140.744c-192.44 0-348.642 105.040-353.84 235.918h-0.621v378.594h128.844v-184.73c61.44 34.616 140.045 55.409 225.62 55.409 195.841 0 354.462-108.639 354.462-242.418-0.002-134.013-158.621-242.774-354.464-242.774z" />
<glyph unicode="&#xe919;" glyph-name="blogger" d="M383.138 533.64h128.68c22.56 0 41.235 18.648 41.235 41.235 0 22.681-18.554 41.235-41.235 41.235h-128.68c-22.623 0-41.266-18.648-41.266-41.235 0.002-22.681 18.556-41.235 41.266-41.235zM0 960v-1024h1024v1024h-1024zM866.023 310.451c0-119.281-100.786-216.912-216.912-216.912h-284.713c-104.635 0-206.42 96.569-206.42 214.819v268.943c0 125.952 99.209 225.161 225.161 225.161h149.905c95.207 0 205.693-106.334 205.693-207.575v-19.89c0-22.314 18.011-41.356 48.513-41.356h31.080c38.475 0 47.694-21.346 47.694-52.971v-170.218zM638.798 359.72h-255.66c-22.623 0-41.266-18.675-41.266-41.266 0-22.681 18.585-41.235 41.266-41.235h255.66c22.56 0 41.266 18.68 41.266 41.235 0 22.713-18.554 41.266-41.266 41.266z" />
<glyph unicode="&#xe91a;" glyph-name="delicious" d="M0 960v-1024h1024v1024h-1024zM866.462 431.101h-337.562v-337.562h-371.361v371.361h337.562v337.562h371.361v-371.361z" />
<glyph unicode="&#xe91b;" glyph-name="deviantart" d="M0 960v-1024h1024v1024h-1024zM752.929 702.141l-148.343-293.743h148.343v-204.629h-251.68l-78.351-155.107h-151.826v133.918l152.388 301.742h-152.388v204.629h255.725l79.991 158.41h146.141v-145.22z" />
<glyph unicode="&#xe91c;" glyph-name="digg" d="M543.499 511.020h47.271v-126.040h-47.271v126.040zM748.308 511.020h55.159v-126.040h-55.159v126.040zM228.422 511.020h55.159v-126.040h-55.159v126.040zM0 960v-1024h1024v1024h-1024zM354.462 321.985h-196.923v252.030h126.040v126.040h70.883v-378.070zM441.117 321.985h-70.883v252.030h70.883v-252.030zM441.117 629.174h-70.883v70.881h70.883v-70.881zM661.653 195.943h-189.037v70.883h118.154v55.159h-118.154v252.030h189.037v-378.072zM866.462 195.943h-189.037v70.883h126.040v55.159h-126.040v252.030h189.037v-378.072z" />
<glyph unicode="&#xe91d;" glyph-name="dribbble" d="M367.274 238.262c40.976-28.566 90.814-45.439 144.551-45.439 27.151 0 52.6 5.527 77.27 13.328-4.393 59.761-16.091 118.743-33.812 175.527-74.439-26.583-140.367-75.855-188.009-143.416zM536.211 434.848c-6.099 15.524-12.479 30.202-19.638 45.16-56.5-24.956-117.753-38.777-180.562-38.777-26.302 0-52.886 3.329-79.188 6.947 0-66.781 26.019-126.827 67.845-172.271 54.515 74.793 128.173 129.308 211.543 158.941zM653.040 660.571c-40.409 26.867-88.827 42.607-141.215 42.607-23.255 0-45.16-4.112-66.713-9.925 36.511-42.396 68.91-88.048 96.060-136.822 42.963 26.583 80.887 61.46 111.868 104.14zM490.487 530.694c-28.215 50.122-61.748 97.197-100.525 140.085-62.529-34.314-109.318-93.578-125.977-165.040 77.84-14.39 156.458-5.244 226.502 24.954zM609.867 397.205c16.872-54.304 28.004-109.953 33.533-166.736 59.763 36.297 104.070 95.846 118.532 166.455-51.256 9.995-102.796 10.278-152.065 0.281zM566.979 506.026c8.579-18.009 16.303-36.297 23.536-54.801 56.995 12.691 116.545 12.972 176.096 2.482-1.42 65.646-28.004 125.196-70.042 169.716-36.013-48.137-80.039-87.765-129.591-117.398zM0 960v-1024h1024v1024h-1024zM511.824 136.038c-171.987 0-311.787 140.155-311.787 312.14s139.8 311.784 311.787 311.784c171.982 0 312.138-139.8 312.138-311.784s-140.155-312.14-312.138-312.14z" />
<glyph unicode="&#xe91e;" glyph-name="dropbox" d="M305.861 537.617l206.054-131.146 217.268 136.055-217.268 126.202zM0 960v-1024h1024v1024h-1024zM729.455 250.312l-217.54-142.458-216.858 143.515v50.986l79.75-46.726 137.108 105.312 140.211-105.447 77.329 45.94v-51.123zM866.462 425.897l-212.497-126.202-142.050 106.775-139.12-106.775-215.256 126.202 148.322 111.72-148.322 111.684 215.256 138.845 139.12-119.421 145.255 119.421 209.292-132.301-137.279-113.32 137.279-116.628z" />
<glyph unicode="&#xe91f;" glyph-name="ebay" d="M427.375 503.116c-37.989 0-55.501-30.101-55.501-59.295 0-31.348 19.528-59.671 55.739-59.671 30.34 0 55.285 23.698 55.285 59.988-0.002 33.817-21.626 58.978-55.523 58.978zM247.945 504.124c-26.327 0-52.951-16.602-52.951-45.776h103.293c0 27.472-20.379 45.776-50.343 45.776zM553.932 411.78c0-15.437 11.424-28.798 38.284-28.798 48.88 0 57.22 33.423 57.22 46.942v10.278c-56.824 0-95.504-0.158-95.504-28.422zM0 960v-1024h1024v1024h-1024zM756.605 305.936h-40.006l31.665 60.146-67.478 126.616c3.083-7.335 4.782-15.99 4.782-26.406v-77.835c0-9.034 1.305-23.086 1.305-23.086h-33.265c0 0-0.851 11.365-0.851 22.868 0 0-16.92-28.956-69.337-28.956-38.523 0-66.945 18.52-66.945 52.575 0 1.938 0.079 3.855 0.315 5.712-9.961-35.043-39.925-57.835-80.385-57.835-47.475 0-64.928 27.335-64.928 27.335 0-10.416-1.224-21.702-1.224-21.702h-35.361c0 0 0.772 15.754 0.772 26.959v42.16h-141.521c0-29.806 22.611-51.054 54.117-51.054 38.601 0 46.548 27.119 46.548 27.119h37.060c0 0-4.94-50.343-81.373-50.343-64.928 0-92.957 31.96-92.957 82.6 0 64.1 41.606 85.249 91.651 85.249 66.866 0 85.919-44.097 86.473-73.586v135.591h36.13v-89.102c0 0 15.358 26.624 64.692 26.624 52.575 0 83.786-37.199 83.786-83.45 0-5.712-0.475-11.287-1.323-16.602 8.419 24.094 37.911 35.973 86.552 35.973h43.937v7.807c0 21.682-19.152 33.047-43.937 33.047-38.068 0-39.986-24.092-39.986-24.092h-37.456c0 6.641 4.861 47.793 80.070 47.793 25.715 0 53.822-5.415 68.093-26.642l-10.812 20.16h42.16l60.463-121.062 60.303 121.062h38.127l-109.856-215.643z" />
<glyph unicode="&#xe920;" glyph-name="evernote" d="M667.738 506.138c-23.046 0-42.225-16.668-46.116-38.606-0.761-4.263 2.417-8.221 6.743-8.221h78.747c4.326 0 7.503 3.961 6.743 8.221-3.914 21.938-23.046 38.606-46.116 38.606zM0 960v-1024h1024v1024h-1024zM375.493 802.462v-164.459h-162.62l162.62 164.459zM809.61 337.813c-4.879-95.574-34.163-198.834-85.093-227.432-50.932-28.598-162.573-15.36-177.213 0 0 0-36.934 24.407-36.934 90.693s69.027 69.067 89.957 69.067c9.644 0 15.884-0.295 19.823-0.619 3.288-0.277 5.712-3.248 5.316-6.538l-4.238-35.872c-0.342-3.137-3.131-5.41-6.284-5.158-12.848 0.99-43.215 0.506-43.215-26.46 0-34.186 30.691-29.304 45.333-29.304 14.671 0 52.334-5.577 69.074 27.214 16.74 32.784 10.481 92.097 10.481 92.097s-5.599 18.648-31.753 23.876c-26.158 5.246-81.114 3.684-106.744 17.795-18.785 10.362-31.658 35.023-37.204 47.478-1.107 2.417-4.602 2.188-5.363-0.371-4.562-15.241-15.385-48.625-26.5-63.315-14.647-19.361-104.304-10.821-143.376-2.44-39.067 8.359-71.856 13.951-98.378 87.906-26.5 73.953-29.289 103.955-32.187 144.271-1.632 22.609-2.093 40.634-2.188 51.020-0.070 5.435 4.326 9.808 9.738 9.808h177.102c5.206 0 9.396 4.215 9.396 9.396v181.799c0 5.388 4.373 9.738 9.738 9.738h78.882c0 0 36.956-0.689 57.191-25.812 20.241-25.121 23.028-39.072 23.028-39.072s161.853-9.761 187.664-20.93c25.834-11.163 36.29-46.044 38.383-79.523 2.091-33.499 10.467-203.717 5.563-299.314z" />
<glyph unicode="&#xe921;" glyph-name="facebook" d="M0 960v-1024h1024v1024h-1024zM677.424 678.193h-80.039c-15.853 0-31.852-16.384-31.852-28.573v-81.614h111.733c-4.499-62.581-13.735-119.808-13.735-119.808h-98.57v-354.66h-146.884v354.698h-71.502v119.344h71.502v97.575c0 17.842-3.614 137.304 150.499 137.304h108.85v-124.266z" />
<glyph unicode="&#xe922;" glyph-name="flickr2" d="M0 960v-1024h1024v1024h-1024zM316.425 290.462c-87.767 0-158.887 70.537-158.887 157.5 0 87.040 71.12 157.579 158.887 157.579 87.729 0 158.848-70.539 158.848-157.579 0-86.963-71.117-157.5-158.848-157.5zM707.575 290.462c-87.729 0-158.848 70.539-158.848 157.5 0 87.040 71.12 157.579 158.848 157.579 87.769 0 158.887-70.539 158.887-157.579 0-86.963-71.12-157.5-158.887-157.5z" />
<glyph unicode="&#xe923;" glyph-name="forrst" d="M0 960v-1024h1024v1024h-1024zM697.020 93.538v1.269h-154.113v111.497l122.801 61.577-14.424 29.194-108.377-54.272v40.735l72.036 38.075-16.118 29.617-55.917-29.5v71.808h-77.351v-113.043l-56.498 38.577-18.313-27.117 74.811-51.308v-145.84h-248.999l295.157 707.654 295.729-708.923h-110.423z" />
<glyph unicode="&#xe924;" glyph-name="foursquare" d="M457.201 361.21c2.991-3.576 10.598-8.633 19.217 0.988l87.362 119.921-80.369 80.387c-3.689 3.682-8.595 5.716-13.809 5.716-5.226 0-10.136-2.034-13.825-5.723l-42.832-42.823c10.814-31.26 9.387-65.534-3.774-95.655 26.507-34.762 47-61.595 48.031-62.811zM646.103 399.798l-172.547-145.602c-7.472-6.065-14.235 0.223-14.235 0.223l-123.755 99.535c-20.66-7.859-42.785-10.26-64.258-7.373l184.469-184.453c3.698-3.698 8.602-5.732 13.825-5.732 5.215 0 10.114 2.034 13.803 5.723l186.373 186.357c3.7 3.7 5.732 8.604 5.732 13.821 0 5.224-2.032 10.13-5.732 13.818l-23.674 23.683zM0 960v-1024h1024v1024h-1024zM866.462 585.745l-191.733-161.797 21.441-21.441c10.744-10.735 16.661-25.017 16.661-40.211 0-15.187-5.914-29.466-16.668-40.213l-186.363-186.35c-10.728-10.744-25.004-16.659-40.197-16.659s-29.475 5.914-40.22 16.659l-186.363 186.357c-10.798 10.798-16.31 24.898-16.591 39.081-13.818 7.456-26.527 17.507-37.348 30.157-47.151 55.116-40.699 138.006 14.419 185.157 55.1 47.167 138.006 40.69 185.157-14.419 2.165-2.536 4.184-5.147 6.128-7.791l34.607 34.609c10.744 10.735 25.017 16.65 40.213 16.65 15.184 0 29.469-5.914 40.197-16.65l76.231-76.233 192.507 264.266h87.922v-191.173z" />
<glyph unicode="&#xe925;" glyph-name="foursquare-1" d="M657.264 723.289h-295.004c-18.677 0-25.044-6.315-25.044-24.844 0-153.141 0-306.282 0.025-459.454 0-2.469-0.704-5.125 1.416-8.305 1.215 1.339 2.023 2.147 2.728 3.031 26.583 33.245 53.068 66.576 79.831 99.697 15.497 19.181 30.241 39.031 46.728 57.432 5.525 6.185 12.448 9.144 20.552 9.468 12.189 0.504 24.412 1.015 36.632 1.085 25.645 0.182 51.297 0 76.922 0.104 10.503 0.052 17.851 5.248 19.841 14.593 5.881 27.817 11.536 55.717 17.016 83.639 1.564 7.956-0.704 14.973-7.697 19.821-4.265 2.955-9.189 3.277-14.192 3.277-39.76-0.045-79.521-0.097-119.288 0.027-18.756 0.052-31.857 13.307-32.16 32.037-0.052 3.761-0.025 7.524 0 11.309 0.027 23.759 12.216 35.903 36.155 35.928 46.328 0.027 92.673-0.025 139.025 0.027 12.9 0.027 20.5 5.856 23.151 18.173 5.404 25.296 10.755 50.619 15.731 75.992 3.536 18.052-4.091 26.964-22.368 26.964zM0 960v-1024h1024v1024h-1024zM757.665 688.298c-20.901-101.288-41.984-202.549-63.065-303.786-1.364-6.437-2.928-12.873-4.944-19.112-9.695-29.865-28.908-44.052-60.416-44.259-35.748-0.2-71.493-0.2-107.248 0.077-6.716 0.052-11.509-1.944-15.853-7.044-26.989-31.656-54.153-63.164-81.265-94.721-32.34-37.64-64.577-75.306-97.048-112.8-10.276-11.865-30.344-16.384-45.544-10.632-15.977 6.063-22.744 18.763-24.209 34.965-0.227 2.579-0.149 5.176-0.149 7.755 0 199.441-0.052 398.883 0.052 598.331 0 25.496 10.4 45.416 33.272 57.965 7.323 4.040 15.549 5.172 23.428 7.42h400.906c5.255-1.188 10.58-2.093 15.731-3.657 19.816-5.984 31.456-20.932 34.008-41.505 2.899-23.678-2.957-46.253-7.656-68.997z" />
<glyph unicode="&#xe926;" glyph-name="google-plus" d="M0 960v-1024h1024v1024h-1024zM363.873 188.777c-144.425 0-259.223 114.801-259.223 259.223s114.798 259.223 259.223 259.223c70.361 0 129.611-25.922 174.048-70.361l-70.361-66.657c-18.515 18.515-51.844 40.735-103.69 40.735-88.874 0-159.235-74.063-159.235-162.94s70.361-162.94 159.235-162.94c103.69 0 140.72 74.063 148.127 111.096h-148.127v88.876h244.41c3.704-14.813 3.704-25.922 3.704-44.439 0.002-148.127-99.985-251.816-248.112-251.816zM919.349 410.967h-74.063v-74.063h-74.066v74.063h-74.063v74.063h74.063v74.063h74.066v-74.063h74.063v-74.063z" />
<glyph unicode="&#xe927;" glyph-name="grooveshark" d="M512.999 730.151c-155.83 0-282.136-126.312-282.136-282.142 0-6.871 0.257-13.677 0.745-20.412 1.533-20.71 10.272-40.703 26.257-53.982 9.018-7.503 19.361-12.419 30.923-12.419 48.553 0 112.626 65.117 112.626 150.886s-8.266 117.805-8.266 117.805 112.651-6.198 196.367-101.259c83.698-95.090 78.544-162.26 128.131-162.26 24.653 0 45.972 14.815 60.673 40.096 13.445 23.091 17.847 50.403 14.536 76.917-17.403 139.122-136.046 246.77-279.856 246.77zM0 960v-1024h1024v1024h-1024zM511.998 93.527c-195.766 0-354.459 158.718-354.459 354.482 0 195.771 158.693 354.464 354.459 354.464 195.771 0 354.464-158.693 354.464-354.464 0-195.764-158.693-354.482-354.464-354.482z" />
<glyph unicode="&#xe928;" glyph-name="html" d="M608.152 435.584l-9.767-101.011-87.285-23.473-86.837 23.473-5.757 62.032h-77.538l9.743-123.186 160.39-44.295h1.78v0.45l159.058 43.845 22.175 241.036h-285.356l-6.635 80.187h298.628l7.089 77.545h-391.677l20.822-236.603zM0 960v-1024h1024v1024h-1024zM767.219 165.311l-256.119-71.772-254.312 71.772-56.721 637.151h623.868l-56.716-637.151z" />
<glyph unicode="&#xe929;" glyph-name="instagram" d="M687.61 725.273h-351.218c-56.053 0-101.666-45.61-101.666-101.666v-351.215c0-56.064 45.613-101.677 101.666-101.677h351.218c56.061 0 101.674 45.613 101.674 101.677v351.215c0 56.053-45.613 101.666-101.674 101.666zM511.994 265.441c-100.653 0-182.553 81.9-182.553 182.565 0 100.653 81.9 182.553 182.553 182.553 100.664 0 182.565-81.9 182.565-182.553 0-100.664-81.9-182.565-182.565-182.565zM700.433 592.809c-23.831 0-43.208 19.377-43.208 43.194 0 23.819 19.377 43.196 43.208 43.196 23.816 0 43.194-19.377 43.194-43.196s-19.377-43.194-43.194-43.194zM511.994 553.407c-58.106 0-105.424-47.295-105.424-105.402 0-58.129 47.318-105.435 105.424-105.435 58.129 0 105.413 47.307 105.413 105.435 0 58.106-47.284 105.402-105.413 105.402zM0 960v-1024h1024v1024h-1024zM866.417 272.392c0-98.611-80.198-178.809-178.806-178.809h-351.218c-98.599 0-178.809 80.198-178.809 178.809v351.215c0 98.599 80.21 178.809 178.809 178.809h351.218c98.608 0 178.806-80.21 178.806-178.809v-351.215z" />
<glyph unicode="&#xe92a;" glyph-name="kickstarter" d="M0 960v-1024h1024v1024h-1024zM769.434 118.4c-51.141-39.898-124.935-30.79-164.835 20.352l-160.374 205.552v-133.296c0-64.888-52.577-117.472-117.44-117.472s-117.44 52.584-117.44 117.472v473.988c0 64.888 52.577 117.465 117.44 117.465s117.44-52.577 117.44-117.465v-105.085l126.155 169.498c38.73 52.037 112.307 62.831 164.34 24.119 52.030-38.73 62.831-112.3 24.119-164.364l-109.030-146.47 139.998-179.452c39.898-51.141 30.788-124.935-20.372-164.841z" />
<glyph unicode="&#xe92b;" glyph-name="lastfm" d="M0 960v-1024h1024v1024h-1024zM697.535 251.054c-140.491 0-189.237 63.342-215.209 142.111l-25.983 81.234c-19.467 59.257-42.198 105.585-113.664 105.585-49.591 0-99.913-35.739-99.913-135.652 0-77.937 39.823-126.683 95.817-126.683 63.342 0 105.585 47.127 105.585 47.127l26.028-70.633c0 0-43.874-43.042-135.652-43.042-113.675 0-177.006 66.549-177.006 190.025 0 128.259 63.33 203.821 182.722 203.821 108.004 0 162.411-38.991 196.484-144.564l26.815-81.189c19.467-59.302 53.574-102.332 135.596-102.332 55.262 0 84.441 12.175 84.441 42.243 0 23.518-13.796 40.566-55.206 50.334l-55.206 12.963c-67.381 16.26-94.197 51.166-94.197 106.372 0 88.525 71.466 116.128 144.519 116.128 82.865 0 133.188-30.022 139.692-103.12l-81.177-9.756c-3.252 34.951-24.351 49.546-63.342 49.546-35.739 0-57.67-16.226-57.67-43.829 0-24.396 10.544-38.991 46.283-47.127l51.954-11.377c69.846-16.226 107.216-50.334 107.216-116.095 0-81.222-68.225-112.089-168.926-112.089z" />
<glyph unicode="&#xe92c;" glyph-name="linkedin2" d="M554.535 500.1v1.497c-0.306-0.502-0.729-1.004-0.995-1.497h0.995zM0 960v-1024h1024v1024h-1024zM318.502 109.288h-151.926v457.078h151.926v-457.078zM242.539 628.751h-1.004c-50.964 0-83.997 35.111-83.997 78.997 0 44.849 33.999 78.965 85.996 78.965 52.008 0 83.968-34.116 84.963-78.965 0-43.886-32.955-78.997-85.957-78.997zM866.462 109.288h-151.966v244.538c0 61.42-21.956 103.345-76.958 103.345-42.004 0-66.965-28.229-77.961-55.573-3.997-9.767-5.041-23.345-5.041-37.042v-255.271h-151.995c0 0 2.037 414.198 0 457.078h151.995v-64.769c20.194 31.073 56.232 75.499 136.959 75.499 100.008 0 174.967-65.311 174.967-205.696v-262.11z" />
<glyph unicode="&#xe92d;" glyph-name="livejournal" d="M604.878 269.491l113.822-24.475-24.472 113.846-23.86 100.969c0.097 0.050-0.025 0.194-0.025 0.194l-269.683 269.654c-74.552-31.998-134.981-90.58-169.421-163.811l272.62-272.614 101.020-23.764zM657.896 443.578l17.773-78.036c-33.115-16.571-60.9-44.354-77.466-77.491l-78.036 17.77c28.069 61.186 76.543 109.658 137.729 137.756zM0 960v-1024h1024v1024h-1024zM531.289 93.538c-183.078 0-331.479 148.401-331.479 331.454 0 50.394 11.314 98.11 31.429 140.875l-69.983 69.965c41.867 67.719 98.909 124.759 166.626 166.628l72.776-72.783c40.1 17.208 84.24 26.77 130.629 26.77 183.053 0 331.454-148.401 331.454-331.454s-148.399-331.456-331.452-331.456z" />
<glyph unicode="&#xe92e;" glyph-name="myspace" d="M0 960v-1024h1024v1024h-1024zM676.522 802.462c57.803 0 104.725-46.958 104.725-104.727 0-57.805-46.922-104.727-104.725-104.727-57.769 0-104.727 46.922-104.727 104.727 0 57.769 46.958 104.727 104.727 104.727zM456.907 774.967c42.632 0 77.232-34.6 77.232-77.232s-34.6-77.232-77.232-77.232c-42.632 0-77.232 34.6-77.232 77.232s34.602 77.232 77.232 77.232zM278.449 747.472c34.978 0 63.4-28.42 63.4-63.571 0-34.978-28.422-63.398-63.4-63.398-35.149 0-63.571 28.42-63.571 63.398 0 35.149 28.422 63.571 63.571 63.571zM841.318 93.538h-329.044v137.713l-164.382 0.412v82.037h-165.211v181.822c0 10.744 12.907 90.929 95.768 90.929 66.9 0 84.852-47.095 90.105-65.185 24.783 23.755 54.029 36.866 93.297 36.866 39.439 0 83.547-29.487 104.864-66.351 22.791 17.163 51.488 39.405 121.888 39.405 102.017 0 152.716-95.734 152.716-145.471 0-38.615 0-292.178 0-292.178z" />
<glyph unicode="&#xe92f;" glyph-name="opera" d="M0 960v-1024h1024v1024h-1024zM512 93.538c-5.66 0-11.278 0.151-16.886 0.414-187.923 8.809-337.576 163.948-337.576 354.047 0 195.771 158.7 354.462 354.462 354.462 0.45 0 0.891-0.018 1.341-0.018 90.24-0.335 172.509-34.388 234.912-90.213-41.559 27.574-90.144 43.427-142.070 43.427-84.411 0-160.005-41.874-210.856-107.909-39.187-46.258-64.573-114.656-66.301-191.405v-16.692c1.728-76.748 27.115-145.138 66.308-191.405 50.842-66.036 126.436-107.909 210.847-107.909 51.918 0 100.496 15.853 142.043 43.409-62.709-56.081-145.473-90.207-236.224-90.207zM763.584 198.362c-36.29-21.583-76.935-32.971-118.3-32.971-35.561 0-70.228 8.406-101.997 24.135 90.137 18.619 159.307 127.244 159.307 258.473 0 131.223-69.164 239.846-159.294 258.471 31.767 15.722 66.432 24.128 101.986 24.128 41.376 0 82.026-11.388 118.314-32.977 63.558-64.060 102.861-152.243 102.861-249.622 0-97.384-39.308-185.571-102.877-249.638z" />
<glyph unicode="&#xe930;" glyph-name="paypal" d="M508.289 630.765h89.225c4.274 0 7.888-1.152 11.777-1.841-7.62 26.773-30.77 44.997-61.39 44.997h-89.187l-39.040-172.691h59.381l29.235 129.535zM508.516 501.572c45.351 1.771 89.885 39.157 100.737 86.007 0.808 2.993 0.995 5.809 1.458 8.694h-80.846l-21.349-94.701zM0 960v-1024h1024v1024h-1024zM304.445 802.462h310.421c90.999 0 196.964-67.111 165.424-214.842-27.923-130.5-131.997-207.271-256.502-207.271h-130.118l-44.613-209.191h-182.155l137.542 631.304zM851.437 509.962c-27.884-130.5-132.037-207.271-256.493-207.271h-130.116l-44.613-209.153h-182.155l7.571 34.501h153.040l44.574 209.191h130.156c124.464 0 228.577 76.73 256.461 207.233 10.467 48.927 5.613 88.802-8.536 120.575 29.5-35.23 44.811-86.311 30.11-155.076z" />
<glyph unicode="&#xe931;" glyph-name="picasa" d="M0 960v-1024h1024v1024h-1024zM512 802.462c47.007 0 91.872-9.175 132.924-25.791v-247.155l-252.32 252.314c37.314 13.346 77.5 20.633 119.396 20.633zM157.538 448c0 133.885 74.234 250.407 183.771 310.713l111.33-111.332-284.731-284.728c-6.761 27.342-10.371 55.917-10.371 85.348zM334.765 140.973c-65.484 37.886-117.71 96.123-148.059 166.066l148.059 148.068v-314.134zM512 93.538c-47.014 0-91.872 9.175-132.924 25.794v151.442h439.951c-61.294-105.949-175.833-177.235-307.027-177.235zM840.668 315.076h-151.442v439.953c105.949-61.287 177.235-175.829 177.235-307.029 0-47.007-9.175-91.872-25.794-132.924z" />
<glyph unicode="&#xe932;" glyph-name="pinterest2" d="M0 960v-1024h1024v1024h-1024zM566.756 290.158c-44.043 0-85.46 23.667-99.535 50.766 0 0-23.667-93.828-28.604-112.032-17.644-63.999-69.6-127.998-73.557-133.179-2.766-3.711-9.031-2.487-9.731 2.309-1.085 8.228-14.356 88.89 1.227 154.676 7.807 33.085 52.375 221.965 52.375 221.965s-12.988 25.978-12.988 64.42c0 60.427 35.010 105.452 78.632 105.452 37.076 0 54.862-27.765 54.862-61.163 0-37.181-23.667-92.988-35.957-144.521-10.152-43.238 21.601-78.389 64.244-78.389 77.266 0 129.116 99.008 129.116 216.363 0 89.311-60.040 156.181-169.448 156.181-123.481 0-200.468-92.183-200.468-195.008 0-35.57 10.503-60.603 26.923-79.892 7.528-9.034 8.473-12.569 5.881-22.827-2.064-7.526-6.441-25.451-8.473-32.698-2.59-10.26-11.097-13.933-20.374-10.118-56.752 23.246-83.291 85.496-83.291 155.657 0 115.667 97.366 254.344 291.007 254.344 155.515 0 257.816-112.557 257.816-233.308 0-159.717-88.753-278.996-219.656-278.996z" />
<glyph unicode="&#xe933;" glyph-name="rss2" d="M0 960v-1024h1024v1024h-1024zM318.306 121.925c-17.23-17.082-40.616-27.499-66.648-27.499-26.005 0-49.388 10.456-66.501 27.499-17.084 17.073-27.619 40.341-27.619 66.225 0 25.886 10.535 49.231 27.619 66.353 17.151 17.034 40.496 27.54 66.501 27.54 26.032 0 49.418-10.506 66.569-27.578 17.151-17.151 27.619-40.429 27.698-66.315-0.079-25.884-10.546-49.111-27.619-66.225zM489.422 93.538c0 0 0 0.227-0.038 0.227-0.149 88.694-34.728 172.385-97.271 234.849-62.534 62.651-146.117 97.35-234.496 97.429v135.346c128.954-0.079 245.69-52.499 330.455-137.315 84.735-84.805 137.157-201.57 137.275-330.536h-135.924zM730.771 93.538c-0.236 316.191-257.004 573.381-572.927 573.618v135.305c195.386-0.079 372.313-79.577 500.736-208 128.344-128.423 207.802-305.496 207.881-500.923h-135.69z" />
<glyph unicode="&#xe934;" glyph-name="sharethis" d="M0 960v-1024h1024v1024h-1024zM740.568 95.661c-69.517 0-125.893 56.352-125.893 125.893 0 3.416 0.25 6.754 0.524 10.098l-257.839 124.444c-20.77-15.108-46.278-24.135-73.928-24.135-69.517 0-125.893 56.352-125.893 125.887 0 69.517 56.376 125.866 125.893 125.866 34.157 0 65.102-13.641 87.767-35.732l243.705 122.005c-0.052 1.494-0.23 2.937-0.23 4.463 0 69.51 56.349 125.887 125.893 125.887 69.517 0 125.869-56.376 125.869-125.887 0-69.517-56.349-125.893-125.869-125.893-33.364 0-63.632 13.067-86.147 34.258l-245.224-122.772c0.025-0.722 0.122-1.449 0.122-2.197 0-6.754-0.671-13.341-1.692-19.794l250.932-121.131c22.042 18.977 50.644 30.493 82.010 30.493 69.517 0 125.893-56.349 125.893-125.862 0-69.542-56.374-125.891-125.893-125.891z" />
<glyph unicode="&#xe935;" glyph-name="skype" d="M643.27 455.148c-14.307 9.423-31.577 17.349-51.85 23.926-20.302 6.538-42.92 12.533-67.8 17.921-19.85 4.656-34.157 8.192-42.772 10.614-8.498 2.392-16.965 5.701-25.305 9.965-8.309 4.233-14.809 9.236-19.465 15.004-4.578 5.692-6.844 12.376-6.882 20.302 0.038 12.653 6.695 23.424 20.617 32.73 13.843 9.157 32.147 13.854 55.069 13.854 24.774 0.041 42.544-4.312 53.347-12.662 11.077-8.536 20.579-20.46 28.544-35.721 6.302-10.969 12.11-18.817 17.653-23.779 5.692-5.111 13.884-7.492 24.34-7.492 11.579-0.038 21.504 4.116 29.273 12.308 7.769 8.154 11.728 17.496 11.728 27.767 0 11.037-3.072 22.391-9.225 33.959-6.115 11.579-15.842 22.578-29.037 33.043-13.233 10.456-29.854 18.806-49.733 25.118-19.958 6.302-43.58 9.423-70.805 9.423-34.116 0-63.891-4.735-89.156-14.237-25.343-9.461-44.811-23.109-58.269-40.919-13.42-17.732-20.156-38.154-20.156-60.958 0-23.926 6.351-44.12 19.112-60.346 12.731-16.118 29.923-28.85 51.506-38.154 21.574-9.315 48.187-17.388 80-24.31 23.689-5.001 42.614-9.729 56.694-14.228 14.030-4.391 25.343-10.733 34.116-19.082 8.644-8.192 12.88-18.727 12.88-32.001 0-16.65-7.848-30.425-24.191-41.727-16.226-11.235-37.465-16.886-63.765-16.886-19.199 0-34.539 2.766-46.080 8.35-11.658 5.572-20.656 12.691-27.038 21.227-6.43 8.615-12.504 19.427-18.079 32.383-4.618 11.156-10.31 19.614-17.084 25.422-6.844 5.849-15.193 8.773-24.961 8.773-11.923 0-21.997-3.731-29.845-11.194-7.728-7.425-11.728-16.501-11.728-26.919 0-17.734 6.421-35.89 19.15-54.43 12.653-18.54 29.154-33.378 49.458-44.455 28.622-15.509 64.847-23.158 108.623-23.158 36.54 0 68.156 5.613 94.917 16.926 26.732 11.226 47.154 26.881 61.075 46.917 13.922 20.007 20.923 42.585 20.883 67.733 0 20.845-3.997 38.577-12.072 53.081-8.030 14.498-19.305 26.489-33.688 35.912zM0 960v-1024h1024v1024h-1024zM667.686 93.538c-38.302 0-74.034 10.879-104.378 29.579-16.728-2.658-33.88-4.008-51.349-4.008-181.613 0-328.841 147.24-328.841 328.891 0 17.496 1.418 34.541 3.997 51.308-18.727 30.385-29.577 66.078-29.577 104.38 0 109.813 89 198.773 198.775 198.773 38.302 0 74.034-10.85 104.34-29.577 16.728 2.62 33.891 4.037 51.349 4.037 181.651 0 328.882-147.229 328.882-328.92 0-17.467-1.38-34.58-4.037-51.308 18.767-30.346 29.617-66.078 29.617-104.389-0.002-109.766-89.002-198.766-198.778-198.766z" />
<glyph unicode="&#xe936;" glyph-name="soundcloud" d="M0 960v-1024h1024v1024h-1024zM168.402 336.938c-0.236-1.625-1.4-2.755-2.836-2.755-1.479 0-2.647 1.139-2.842 2.77l-5.185 38.698 5.183 39.371c0.196 1.629 1.364 2.773 2.842 2.773 1.438 0 2.604-1.134 2.836-2.759l6.139-39.385-6.137-38.714zM194.718 313.379c-0.239-1.681-1.447-2.858-2.941-2.858-1.506 0-2.746 1.206-2.948 2.874l-6.97 62.257c0 0 6.97 63.655 6.97 63.661 0.203 1.661 1.443 2.865 2.948 2.865 1.494 0 2.703-1.173 2.944-2.863l7.931-63.666-7.933-62.27zM223.173 302.851c-0.218-2.010-1.71-3.47-3.547-3.47-1.872 0-3.367 1.461-3.556 3.484l-6.614 72.778c0 0 6.614 75.531 6.614 75.537 0.187 2.016 1.681 3.479 3.556 3.479 1.839 0 3.329-1.458 3.551-3.477l7.515-75.54-7.519-72.792zM251.859 300.542c-0.198-2.32-1.985-4.078-4.152-4.078-2.197 0-3.988 1.758-4.164 4.078l-6.254 75.087 6.254 77.615c0.176 2.329 1.965 4.087 4.164 4.087 2.17 0 3.956-1.753 4.152-4.073l7.105-77.628-7.105-75.087zM280.772 299.921c-0.187-2.671-2.233-4.695-4.762-4.695-2.554 0-4.602 2.023-4.76 4.69l-5.903 75.704 5.903 71.995c0.16 2.68 2.206 4.701 4.76 4.701 2.532 0 4.58-2.019 4.762-4.672l6.689-72.024-6.689-75.699zM309.912 299.912c-0.169-2.971-2.525-5.309-5.365-5.309-2.863 0-5.224 2.338-5.368 5.293l-5.543 75.697c0 0 5.543 117.134 5.543 117.137 0.144 2.977 2.505 5.314 5.368 5.314 2.84 0 5.197-2.329 5.365-5.307l6.27-117.141c0-0.002-6.27-75.706-6.27-75.684zM338.838 299.986c-0.153-3.32-2.777-5.919-5.968-5.919-3.216 0-5.838 2.597-5.973 5.89l-5.188 75.227c0 0 5.181 143.916 5.181 143.925 0.14 3.322 2.764 5.919 5.98 5.919 3.194 0 5.815-2.599 5.968-5.919l5.86-143.925c0 0-5.865-75.24-5.86-75.198zM368.876 301.14c-0.146-3.664-3.034-6.522-6.578-6.522-3.565 0-6.455 2.867-6.578 6.493l-4.827 74.453c0 0 4.825 155.932 4.825 155.936 0.128 3.662 3.016 6.533 6.581 6.533 3.545 0 6.432-2.867 6.578-6.531l5.444-155.938c0-0.002-5.446-74.468-5.444-74.423zM398.698 301.595c-0.131-3.995-3.279-7.127-7.179-7.127-3.914 0-7.069 3.133-7.182 7.094l-4.472 73.991 4.467 161.187c0.115 4.006 3.27 7.143 7.184 7.143 3.902 0 7.053-3.135 7.182-7.139l5.034-161.198-5.034-73.951zM428.752 302.293c-0.117-4.341-3.533-7.751-7.785-7.751-4.269 0-7.69 3.412-7.787 7.715l-4.114 73.282 4.11 157.077c0.099 4.344 3.522 7.746 7.791 7.746 4.251 0 7.668-3.398 7.785-7.737l4.62-157.086c0 0-4.62-73.298-4.62-73.246zM459.036 302.763c-0.101-4.69-3.788-8.354-8.39-8.354-4.616 0-8.305 3.664-8.39 8.302l-3.754 72.821 3.752 151.34c0.090 4.688 3.779 8.361 8.395 8.361 4.602 0 8.289-3.671 8.39-8.345l4.204-151.365c-0.002 0.002-4.206-72.821-4.206-72.76zM489.922 310.368l-0.376-7.154c-0.047-2.467-1.076-4.706-2.703-6.326-1.629-1.623-3.857-2.629-6.297-2.629-2.746 0-5.226 1.272-6.882 3.257-1.227 1.467-1.992 3.329-2.095 5.35-0.005 0.101-0.018 0.203-0.020 0.306 0 0-3.396 72.29-3.396 72.398l3.397 180.044c0.050 3.142 1.701 5.908 4.15 7.51 1.404 0.918 3.067 1.458 4.845 1.458 1.83 0 3.54-0.565 4.971-1.535 2.379-1.611 3.974-4.339 4.028-7.427l3.79-180.107-3.412-65.144zM519.92 304.282c-0.072-5.28-4.38-9.576-9.594-9.576-5.233 0-9.538 4.296-9.608 9.5l-1.94 35.158-1.998 36.128 3.916 195.442 0.020 0.988c0.041 2.968 1.42 5.629 3.549 7.386 1.659 1.368 3.77 2.192 6.058 2.192 1.78 0 3.448-0.509 4.884-1.38 2.77-1.677 4.661-4.715 4.71-8.183 0 0 4.274-196.444 4.274-196.446 0.002 0.002-4.272-71.293-4.272-71.21zM779.271 294.506c0 0-241.482-0.023-241.705 0-5.21 0.522-9.349 4.668-9.419 10.006 0 0 0 276.746 0 276.75 0.063 5.088 1.809 7.701 8.392 10.254 16.938 6.551 36.11 10.42 55.782 10.42 80.385 0 146.283-61.647 153.222-140.227 10.38 4.348 21.781 6.77 33.727 6.77 48.155 0 87.191-39.040 87.191-87.202 0-48.166-39.036-86.77-87.191-86.77z" />
<glyph unicode="&#xe937;" glyph-name="stumbleupon2" d="M0 960v-1024h1024v1024h-1024zM512.023 600.191c-20.73 0-37.539-16.764-37.539-37.494v-229.385c0-87.524-70.967-158.463-158.49-158.463s-158.454 70.94-158.454 158.463v104.25h120.951v-100.075c0-20.739 16.773-37.539 37.503-37.539s37.539 16.8 37.539 37.539v225.21c0 87.524 70.969 158.454 158.49 158.454 87.524 0 158.454-70.931 158.454-158.454v-45.889l-66.549-22.922-54.412 22.922v45.889c0 20.732-16.764 37.494-37.494 37.494zM866.462 333.312c0-87.524-70.931-158.463-158.454-158.463s-158.49 70.94-158.49 158.463v102.166l54.412-22.922 66.549 22.922v-102.166c0-20.703 16.8-37.503 37.53-37.503s37.539 16.8 37.539 37.503v100.075h120.915v-100.075z" />
<glyph unicode="&#xe938;" glyph-name="technorati" d="M511.984 609.506c-117.33 0-212.468-59.75-212.468-133.455 0-73.681 95.135-133.428 212.468-133.428 117.337 0 212.472 59.745 212.472 133.428 0.002 73.705-95.135 133.455-212.472 133.455zM0 960v-1024h1024v1024h-1024zM511.984 195.002c-35.806 0-70.368 4.254-102.956 12.079l-177.341-68.207 44.286 127.532c-72.668 51.475-118.435 126.31-118.435 209.645 0 155.236 158.688 281.078 354.446 281.078 195.764-0.002 354.477-125.844 354.477-281.078 0-155.207-158.713-281.049-354.477-281.049z" />
<glyph unicode="&#xe939;" glyph-name="telegram" d="M0 960v-1024h1024v1024h-1024zM866.043 733.415l-120.31-578.697c-2.833-13.663-18.855-19.854-30.16-11.64l-164.234 119.236c-9.97 7.24-23.566 6.855-33.11-0.927l-91.057-74.225c-10.566-8.642-26.491-3.826-30.538 9.189l-63.227 203.339-163.352 60.965c-16.593 6.216-16.735 29.642-0.189 36.016l670.398 258.622c14.212 5.496 28.875-6.954 25.778-21.878zM705.698 628.766l-319.249-196.624c-12.236-7.551-17.995-22.328-14.048-36.162l34.517-121.284c2.455-8.593 14.923-7.715 16.118 1.164l8.971 66.51c1.695 12.522 7.665 24.065 16.929 32.682l263.47 244.909c4.933 4.569-0.972 12.326-6.707 8.804z" />
<glyph unicode="&#xe93a;" glyph-name="tumblr" d="M0 960v-1024h1024v1024h-1024zM728.125 132.946c-26.383-14.113-53.79-24.27-82.291-30.407-24.27-6.070-50.59-9-79.087-9-24.542 0-52.769 3.956-85.224 11.932-26.388 10.157-46.634 22.361-60.749 36.475-18.407 16.569-30.612 32.523-36.475 48.747-8.251 20.521-12.272 44.795-12.272 73.021v246.599h-76.156v100.363c24.475 8.316 47.655 21.337 70.017 39.747 22.366 18.067 38.658 38.316 48.747 60.679 7.978 18.407 16.226 48.745 24.272 91.359h96.677v-182.992h163.766v-109.156h-163.766v-179.515c0-40.769 3.68-67.087 9.817-79.359 2.113-10.091 9.34-19.159 21.342-27.409 20.455-9.887 38.588-14.93 54.814-14.93 34.361 0 70.089 12 106.561 36.477v-112.631z" />
<glyph unicode="&#xe93b;" glyph-name="twitter2" d="M0 960v-1024h1024v1024h-1024zM793.884 592.578c0.277-6.241 0.419-12.515 0.419-18.815 0-192.204-146.29-413.822-413.815-413.822-82.136 0-158.587 24.074-222.951 65.349 11.379-1.353 22.953-2.041 34.697-2.041 68.142 0 130.854 23.25 180.634 62.268-63.646 1.168-117.362 43.22-135.872 101.005 8.885-1.704 17.998-2.617 27.369-2.617 13.265 0 26.115 1.787 38.32 5.104-66.533 13.366-116.671 72.146-116.671 142.613 0 0.614 0 1.224 0.014 1.832 19.607-10.893 42.031-17.437 65.876-18.193-39.029 26.082-64.699 70.602-64.699 121.057 0 26.658 7.173 51.639 19.695 73.125 71.732-87.999 178.903-145.899 299.78-151.971-2.482 10.65-3.774 21.752-3.774 33.148 0 80.318 65.126 145.437 145.444 145.437 41.835 0 79.636-17.66 106.165-45.925 33.126 6.515 64.255 18.626 92.358 35.291-10.857-33.965-33.918-62.462-63.949-80.466 29.424 3.518 57.452 11.338 83.536 22.906-19.494-29.165-44.151-54.783-72.573-75.285z" />
<glyph unicode="&#xe93c;" glyph-name="viber" d="M0 960v-1024h1024v1024h-1024zM846.022 200.752c-27.785-82.627-95.738-116.849-176.196-84.074-115.876 47.201-215.753 110.7-297.52 192.469-81.767 81.767-145.268 181.644-192.469 297.52-32.775 80.457 1.447 148.41 84.074 176.196 14.833 4.987 29.354 5.336 43.935-0.032 35.237-12.961 124.467-135.778 126.467-172.527 1.533-28.184-17.62-43.449-36.625-56.347-35.903-24.389-36.103-55.31-20.761-89.792 15.443-34.701 35.248-65.063 60.292-90.105 25.042-25.044 55.404-44.849 90.105-60.292 34.485-15.344 65.403-15.144 89.795 20.759 12.898 19.008 28.161 38.16 56.347 36.628 36.749-2.001 159.566-91.231 172.529-126.467 5.361-14.581 5.014-29.102 0.027-43.935zM729.93 518.64c-3.097 35.691-19.708 70.258-46.778 97.325-28.31 28.312-65.066 45.74-103.496 49.071-10.575 0.916-21.178 0.711-31.501-0.605-12.911-1.643-24.783 7.497-26.435 20.444-1.654 12.945 7.499 24.781 20.444 26.437 13.656 1.742 27.643 2.014 41.577 0.81 49.496-4.292 96.67-26.574 132.832-62.739 34.922-34.92 56.388-79.901 60.443-126.663 1.123-12.983 0.871-26.043-0.754-38.822-1.517-11.935-11.687-20.653-23.41-20.656-0.995 0-1.998 0.063-3.009 0.189-12.947 1.645-22.109 13.474-20.464 26.421 1.2 9.459 1.386 19.145 0.551 28.787zM651.455 511.837c-3.216 37.089-39.211 71.311-78.603 74.725-3.135 0.272-6.252 0.347-9.266 0.223-13.024-0.52-24.047 9.596-24.585 22.636s9.596 24.047 22.638 24.585c5.016 0.203 10.159 0.086 15.295-0.358 62.941-5.455 116.356-57.168 121.606-117.731 0.479-5.539 0.536-11.084 0.167-16.49-0.848-12.473-11.232-22.026-23.552-22.026-0.54 0-1.083 0.018-1.629 0.056-13.022 0.887-22.859 12.16-21.972 25.181 0.203 2.984 0.171 6.079-0.099 9.198zM852.652 462.253c-1.996-11.489-11.977-19.591-23.253-19.591-1.344 0-2.703 0.115-4.073 0.353-12.857 2.233-21.472 14.467-19.238 27.326 3.14 18.070 3.916 36.61 2.314 55.102-4.695 54.135-29.397 106.064-69.553 146.22-41.401 41.401-95.522 66.918-152.396 71.847-18.455 1.605-36.947 0.965-54.958-1.893-12.902-2.043-24.995 6.749-27.040 19.636-2.043 12.891 6.749 24.997 19.638 27.043 21.801 3.459 44.156 4.231 66.443 2.3 67.937-5.89 132.476-36.259 181.732-85.514 48.011-48.011 77.565-110.36 83.221-175.559 1.956-22.555 1.001-45.187-2.836-67.271z" />
<glyph unicode="&#xe93d;" glyph-name="vimeo2" d="M0 960v-1024h1024v1024h-1024zM866.122 601.361c-2.975-64.618-51.139-152.448-144.454-263.872-96.161-116.608-177.699-175.061-244.781-175.361-41.703 0-76.393 35.669-104.153 107.088l-29.205 97.989-28.737 97.82c-21.254 70.91-44 106.28-68.23 106.28-5.314 0-23.764-10.33-55.307-30.905l-33.715 39.873 52.289 43.321 51.355 42.853c45.997 36.857 81.027 56.964 104.918 59.77 3.317 0.34 6.504 0.511 9.821 0.511 49.143 0 80.050-35.372 91.993-106.28 6.803-40.343 12.457-73.246 16.922-98.5 4.337-25.208 7.992-42.808 10.967-52.969 16.283-66.911 33.88-100.624 52.629-100.966 14.624 0 36.859 21.936 66.956 65.595 29.545 44.851 45.317 78.051 47.487 99.648 0.468 4.506 0.808 8.46 0.808 12.288 0 29.417-16.112 43.998-48.292 43.998-16.283 0-33.583-3.486-52.163-10.29 33.202 102.794 97.312 154.275 192.111 154.615h7.994c68.57-1.827 102.792-40.683 103.131-116.907-0.005-4.969-0.173-10.285-0.344-15.599z" />
<glyph unicode="&#xe93e;" glyph-name="vk" d="M0 960v-1024h1024v1024h-1024zM767.658 393.476c23.507-22.933 48.364-44.525 69.463-69.877 9.322-11.203 18.139-22.76 24.86-35.741 9.54-18.599 0.893-38.975-15.72-40.098l-103.244 0.045c-26.649-2.19-47.885 8.554-65.795 26.786-14.241 14.516-27.553 30.054-41.302 45.063-5.595 6.18-11.512 11.959-18.542 16.569-14.104 9.139-26.338 6.365-34.4-8.325-8.199-14.964-10.125-31.577-10.881-48.241-1.123-24.322-8.462-30.684-32.874-31.854-52.231-2.419-101.765 5.516-147.769 31.809-40.627 23.196-72.067 55.991-99.438 93.074-53.343 72.297-94.197 151.667-130.878 233.321-8.291 18.403-2.235 28.265 18.002 28.62 33.736 0.666 67.458 0.585 101.146 0.045 13.704-0.23 22.796-8.061 28.037-21.007 18.232-44.799 40.532-87.434 68.525-126.992 7.488-10.526 15.101-21.007 25.89-28.438 11.959-8.244 21.099-5.55 26.739 7.843 3.59 8.507 5.161 17.554 5.917 26.649 2.683 31.132 3.004 62.297-1.616 93.337-2.867 19.402-13.839 31.947-33.184 35.615-9.862 1.881-8.383 5.505-3.635 11.158 8.336 9.711 16.179 15.767 31.717 15.767h116.684c18.403-3.59 22.53-11.878 25.031-30.376l0.092-129.674c-0.218-7.166 3.59-28.391 16.443-33.092 10.296-3.405 17.154 4.886 23.334 11.422 27.945 29.653 47.885 64.717 65.703 100.998 7.888 15.95 14.701 32.518 21.328 49.1 4.884 12.27 12.497 18.313 26.338 18.094l112.338-0.137c3.313 0 6.72 0 9.988-0.538 18.896-3.268 24.092-11.422 18.22-29.917-9.173-28.976-27.142-53.169-44.651-77.399-18.772-25.938-38.745-50.968-57.378-77.043-17.019-23.876-15.677-35.881 5.512-56.568z" />
<glyph unicode="&#xe93f;" glyph-name="wikipedia" d="M0 960v-1024h1024v1024h-1024zM866.462 694.118c0-4.317-3.506-7.809-7.825-7.809h-21.911c-7.98 0-15.178-4.839-18.187-12.241l-199.883-490.415-100.669 225.975-107.711-225.973-206.13 490.606c-3.070 7.29-10.206 12.029-18.115 12.029h-20.662c-4.317 0-7.83 3.511-7.83 7.83v18.227h178.124l-0.502-18.439c-0.113-4.245-3.585-7.618-7.825-7.618h-29.818c-11.086 0-18.684-11.187-14.617-21.488l144.722-366.108 73.192 158.63-92.495 217.029c-3.090 7.236-10.186 11.955-18.074 11.955h-14.386c-4.317 0-7.83 3.493-7.83 7.809v18.227h133.764v-18.227c0-4.317-3.511-7.809-7.825-7.809-11.282 0-18.9-11.552-14.451-21.932l54.661-127.318 55.811 127.201c4.548 10.384-3.049 22.028-14.406 22.028h-20.894c-4.337 0-7.83 3.511-7.83 7.83v18.227h140.079v-18.227c0-4.317-3.493-7.83-7.83-7.83h-23.311c-7.618 0-14.563-4.416-17.786-11.32l-86.223-184.376 80.507-189.177 140.86 363.558c3.914 10.285-3.684 21.317-14.696 21.317h-34.818c-4.317 0-7.83 3.511-7.83 7.83v18.227h150.65v-18.229z" />
<glyph unicode="&#xe940;" glyph-name="wordpress" d="M0 960v-1024h1024v1024h-1024zM157.538 447.991c0 51.412 10.994 100.17 30.684 144.262l169.14-463.154c-118.302 57.371-199.824 178.7-199.824 318.892zM512.047 93.538c-34.83 0-68.403 5.095-100.165 14.399l106.399 309.034 108.958-298.434c0.689-1.809 1.553-3.324 2.498-4.839-36.857-12.981-76.447-20.16-117.69-20.16zM560.848 614.145c21.434 1.177 40.553 3.383 40.553 3.383 19.118 2.327 16.875 30.331-2.206 29.246 0 0-57.466-4.542-94.501-4.542-34.834 0-93.326 4.542-93.326 4.542-19.134 1.083-21.378-28.085-2.302-29.246 0 0 18.094-2.206 37.172-3.383l55.249-151.264-77.572-232.61-129.119 383.876c21.457 1.177 40.575 3.383 40.575 3.383 19.134 2.327 16.888 30.331-2.149 29.246 0 0-57.463-4.542-94.555-4.542-6.653 0-14.482 0.173-22.798 0.47 63.351 96.191 172.304 159.758 296.177 159.758 92.302 0 176.281-35.32 239.319-93.125-1.512 0.135-3.029 0.313-4.542 0.313-34.875 0-59.534-30.288-59.534-62.876 0-29.246 16.834-53.91 34.789-83.117 13.456-23.581 29.208-53.966 29.208-97.789 0-30.326-9.007-68.5-26.962-114.542l-35.345-118.111-128.133 380.93zM690.277 141.646l108.211 313.013c20.244 50.583 27.004 90.985 27.004 126.913 0 13.064-0.905 25.136-2.419 36.508 27.691-50.532 43.388-108.429 43.388-170.090 0-130.752-70.865-244.903-176.184-306.345z" />
<glyph unicode="&#xe941;" glyph-name="xing" d="M0 960v-1024h1024v1024h-1024zM177.231 307.89l122.999 202.534-92.23 162.501h156.112l92.277-162.501-123.008-202.534h-156.15zM759.266 93.538h-165.652l-158.533 277.927 246.077 430.996h165.611l-246.075-430.996 158.571-277.927z" />
<glyph unicode="&#xe942;" glyph-name="yahoo" d="M0 960v-1024h1024v1024h-1024zM728.577 555.52c-17.349-4.688-176.078-127.764-186.535-157.962-2.314-10.418 0.227-111.575 2.541-126.731 10.456-2.343 85.957-0.306 99.801-2.608l-1.654-31.271c-13.578 1.033-109.498 0.767-164.225 0.767-27.846 0-117.267-3.043-144.74-2.264l5.199 29.766c15.074 1.112 77.459-2.766 91.116 11.806 6.803 7.238 4.647 103.386 2.343 119.621-5.77 17.379-144.845 191.684-181.189 220.228h-93.695v43.805h315.923v-3.043c0.266 0 0.808-0.029 1.074-0.070l-1.074-7.425v-33.27h-95.273c42.466-62.12 103.345-137.079 129.31-173.076l127.271 115.309h-75.657l-10.654 43.766h277.081l-2.039-3.113c0.227 0 0.65-0.041 0.954-0.041l-19.762-28.731c-0.198 0-0.502-0.041-0.659-0.079l-7.956-11.806h-51.121c-6.612-1.465-12.452-2.773-16.379-3.581zM812.19 235.332l-23.187 1.692-21.545 1.881-0.227 46.769 27.304-3.349 24.427-1.191-6.772-45.803zM817.035 313.019l-42.497 3.425-1.152 197.652c9.767-1.92 84.805-9.038 93.076-9.304l-49.427-191.774z" />
<glyph unicode="&#xe943;" glyph-name="yandex" d="M539.27 742.37c-11.16-1.823-92.045-19.994-92.045-160.673 0-64.222 16.114-102.906 34.622-126.166 17.827-22.388 45.468-34.688 74.084-34.688h50.072v321.709h-64.357c-0.799 0-1.575-0.047-2.377-0.182zM0 960v-1024h1024v1024h-1024zM683.31 93.538h-75.2v264.631h-52.928l-119.776-264.631h-94.714l150.424 271.596c0 0-126.733 58.492-126.733 203.346 0 144.834 100.991 233.981 185.756 233.981h133.172v-708.923z" />
<glyph unicode="&#xe944;" glyph-name="youtube" d="M0 960v-1024h1024v1024h-1024zM854.068 280.422c-8.689-37.697-39.526-65.531-76.647-69.677-87.87-9.797-176.837-9.862-265.457-9.797-88.584-0.065-177.55 0-265.448 9.797-37.13 4.143-67.964 31.98-76.609 69.677-12.369 53.669-12.369 112.302-12.369 167.58s0.146 113.885 12.504 167.553c8.644 37.733 39.49 65.531 76.573 69.675 87.906 9.824 176.911 9.862 265.495 9.824 88.575 0.036 177.55 0 265.448-9.824 37.13-4.143 67.964-31.942 76.647-69.675 12.367-53.669 12.256-112.275 12.256-167.553s-0.036-113.912-12.394-167.58zM420.526 337.95c75.319 39.058 149.972 77.79 225.366 116.876-75.612 39.452-150.256 78.366-225.366 117.562v-234.437z" />
<glyph unicode="&#xe945;" glyph-name="zerply" d="M0 960v-1024h1024v1024h-1024zM733.895 121.231c-24.328-18.916-47.914-27.693-74.201-27.693-21.238 0-44.464 5.824-73.127 18.373-24.844 10.872-54.252 32.088-85.397 54.569-38.433 27.761-78.177 56.442-111.42 66.76-20.719 6.43-45.475 9.7-73.53 9.7-33.736 0-60.369-4.87-60.641-4.917l-2.368-0.428-0.335 2.37c-0.207 1.42-4.83 34.868 4.195 69.603 9.187 35.273 32.655 62.241 81.832 109.316 44.28 42.43 173.056 205.241 196.576 235.099-13.364-2.143-47.376-7.019-82.267-7.019-57.301 0-91.285 12.527-100.991 37.213-23.203 59.063 38.12 116.457 38.75 117.017l1.371 1.267 1.515-1.080c0.272-0.185 27.171-18.644 108.688-32.91 14.559-2.548 32.32-3.837 52.814-3.837 81.18 0 181.225 20.268 182.218 20.469l2.89 0.59-0.11-2.935c0-0.405-1.607-41.12-18.238-78.562-11.417-25.704-47.664-63.664-93.567-111.76-21.821-22.879-46.584-48.814-71.948-76.865-69.47-76.847-146.56-162.406-163.217-180.913 11.579-0.745 42.562-4.287 88.039-20.741 22.816-8.233 48.859-24.236 76.442-41.165 41.887-25.751 85.219-52.357 119.14-52.357 55.424 0 90.477 27.668 90.812 27.941l3.277 2.64 0.473-4.177c0.401-3.632 9.315-89.124-37.674-125.567z" />
<glyph unicode="&#xe946;" glyph-name="x3-grid" d="M219.427 960h-146.286c-40.373 0-73.142-32.769-73.142-73.142v-146.286c0-40.375 32.769-73.142 73.142-73.142h146.286c40.375 0 73.142 32.769 73.142 73.142v146.286c0.002 40.373-32.767 73.142-73.142 73.142zM585.143 960h-146.286c-40.375 0-73.142-32.769-73.142-73.142v-146.286c0-40.375 32.769-73.142 73.142-73.142h146.286c40.375 0 73.142 32.769 73.142 73.142v146.286c0 40.373-32.767 73.142-73.142 73.142zM950.856 960h-146.286c-40.375 0-73.144-32.769-73.144-73.142v-146.286c0-40.375 32.769-73.142 73.144-73.142h146.286c40.375 0 73.144 32.769 73.144 73.142v146.286c0 40.373-32.769 73.142-73.144 73.142zM219.427 594.287h-146.286c-40.373 0-73.142-32.769-73.142-73.144v-146.286c0-40.375 32.769-73.142 73.142-73.142h146.286c40.375 0 73.142 32.769 73.142 73.142v146.286c0.002 40.375-32.767 73.144-73.142 73.144zM585.143 594.287h-146.286c-40.375 0-73.142-32.769-73.142-73.142v-146.286c0-40.375 32.769-73.142 73.142-73.142h146.286c40.375 0 73.142 32.769 73.142 73.142v146.286c0 40.373-32.767 73.142-73.142 73.142zM950.856 594.287h-146.286c-40.375 0-73.144-32.769-73.144-73.142v-146.286c0-40.375 32.769-73.142 73.144-73.142h146.286c40.375 0 73.144 32.769 73.144 73.142v146.286c0 40.373-32.769 73.142-73.144 73.142zM219.427 228.571h-146.286c-40.373 0-73.142-32.767-73.142-73.142v-146.286c0-40.375 32.769-73.144 73.142-73.144h146.286c40.375 0 73.142 32.769 73.142 73.144v146.286c0.002 40.375-32.767 73.142-73.142 73.142zM585.143 228.571h-146.286c-40.375 0-73.142-32.769-73.142-73.144v-146.286c0-40.375 32.769-73.144 73.142-73.144h146.286c40.375 0 73.142 32.769 73.142 73.144v146.286c0 40.377-32.767 73.144-73.142 73.144zM950.856 228.571h-146.286c-40.375 0-73.144-32.769-73.144-73.144v-146.286c0-40.375 32.769-73.144 73.144-73.144h146.286c40.375 0 73.144 32.769 73.144 73.144v146.286c0 40.377-32.769 73.144-73.144 73.144z" />
<glyph unicode="&#xe947;" glyph-name="access-denied" d="M611.942 448.019l391.488 391.348c27.426 27.57 27.426 72.39 0 99.956-27.57 27.57-72.53 27.57-99.956 0l-391.488-391.348-391.353 391.348c-27.57 27.57-72.39 27.57-99.956 0s-27.57-72.39 0-99.956l391.348-391.348-391.348-391.488c-27.57-27.426-27.57-72.39 0-99.956 27.57-27.426 72.39-27.426 99.956 0l391.348 391.488 391.488-391.488c27.426-27.426 72.39-27.426 99.956 0 27.426 27.57 27.426 72.53 0 99.956l-391.483 391.488z" />
<glyph unicode="&#xe948;" glyph-name="add-circular-mini-button" d="M512.001 960c-282.761 0-512.001-229.24-512.001-512.001 0-282.829 229.24-512.001 512.001-512.001 282.829 0 512.001 229.172 512.001 512.001-0.002 282.761-229.174 512.001-512.001 512.001zM785.068 413.866h-238.934v-238.934c0-18.773-15.36-34.133-34.133-34.133-18.842 0-34.133 15.36-34.133 34.133v238.934h-238.934c-18.842 0-34.133 15.36-34.133 34.133 0 18.842 15.291 34.133 34.133 34.133h238.934v238.934c0 18.842 15.291 34.133 34.133 34.133 18.773 0 34.133-15.291 34.133-34.133v-238.934h238.934c18.773 0 34.133-15.291 34.133-34.133 0-18.773-15.36-34.133-34.133-34.133z" />
<glyph unicode="&#xe949;" glyph-name="add-folder-silhouette" d="M955.734 891.734h-273.067c-37.683 0-68.266-30.584-68.266-68.266 0 0-8.875-62.602-68.266-68.266h-477.87c-37.681-0.002-68.266-30.587-68.266-68.27v-614.4c0-37.683 30.584-68.268 68.266-68.268h887.467c37.683 0 68.266 30.584 68.266 68.268v750.933c0.002 37.683-30.58 68.268-68.264 68.268zM716.8 345.6h-170.666v-170.666c0-18.773-15.36-34.133-34.133-34.133-18.842 0-34.133 15.36-34.133 34.133v170.666h-170.666c-18.842 0-34.133 15.36-34.133 34.133s15.291 34.133 34.133 34.133h170.666v170.666c0 18.842 15.291 34.133 34.133 34.133 18.773 0 34.133-15.291 34.133-34.133v-170.666h170.666c18.773 0 34.133-15.36 34.133-34.133s-15.36-34.133-34.133-34.133z" />
<glyph unicode="&#xe94a;" glyph-name="archive-box" d="M959.999 896.001h-896c-35.326 0-63.999-28.673-63.999-64.001v-128h1024v128c0 35.328-28.673 64.001-64.001 64.001zM63.999 64c0-35.328 28.673-63.999 63.999-63.999h768c35.328 0 63.999 28.673 63.999 63.999v576.001h-895.998v-576.001zM384 512.001h256c35.328 0 64.001-28.673 64.001-63.999s-28.673-63.999-64.001-63.999h-256c-35.328 0-63.999 28.673-63.999 63.999s28.671 63.999 63.999 63.999z" />
<glyph unicode="&#xe94b;" glyph-name="arrow-in-circle-point-to-up" d="M512 959.965c-282.776 0-512-229.155-512-512s229.293-511.931 512-511.931 512 229.224 512 512-229.224 511.931-512 511.931zM512 4.604c-244.514 0-443.431 198.848-443.431 443.5s198.915 443.431 443.431 443.431 443.431-198.986 443.431-443.431-198.848-443.5-443.431-443.5zM534.079 611.503c-6.72 6.72-15.497 9.941-24.342 9.941s-17.622-3.223-24.342-9.941l-222.366-222.368c-13.372-13.372-13.372-35.108 0-48.477 13.372-13.372 35.108-13.372 48.477 0l198.231 198.231 198.231-198.231c13.372-13.372 35.108-13.372 48.477 0 13.372 13.372 13.372 35.108 0 48.477l-222.366 222.368z" />
<glyph unicode="&#xe94c;" glyph-name="arrow-left-and-right" d="M671.999 384.321h-562.88l73.407 73.409c12.481 12.481 12.481 32.769 0 45.248-12.481 12.481-32.769 12.481-45.248 0l-127.936-127.938c-6.271-6.273-9.344-14.464-9.344-22.72s3.073-16.448 9.344-22.72l123.264-123.264c12.543-12.481 32.769-12.481 45.248 0 12.481 12.481 12.481 32.769 0 45.248l-68.735 68.735h562.88c17.6 0 31.999 14.4 31.999 31.999s-14.4 32.004-31.999 32.004zM1014.654 566.401l-123.264 123.264c-12.481 12.481-32.769 12.481-45.248 0s-12.481-32.769 0-45.248l68.735-68.735h-562.878c-17.664 0-31.999-14.335-31.999-31.999s14.335-31.999 31.999-31.999h562.88l-73.345-73.407c-12.481-12.481-12.481-32.769 0-45.248 12.416-12.416 32.769-12.416 45.248 0l127.871 127.936c6.273 6.273 9.344 14.464 9.344 22.72 0.002 8.252-3.071 16.444-9.344 22.716z" />
<glyph unicode="&#xe94d;" glyph-name="arrow-left-in-circle" d="M512.001 960c-282.761 0-512.001-229.24-512.001-512.001 0-282.829 229.24-512.001 512.001-512.001 282.829 0 512.001 229.172 512.001 512.001-0.002 282.761-229.174 512.001-512.001 512.001zM853.334 413.866h-532.003l146.5-146.5c13.313-13.244 13.313-34.953 0-48.264-13.313-13.244-34.953-13.244-48.264 0l-205.003 205.141-7.099 10.718-2.663 12.903v0.137l2.663 13.038 7.372 11.128 204.799 204.799c13.313 13.313 34.953 13.313 48.264 0 13.313-13.313 13.313-34.953 0-48.264l-146.569-146.569h532.003c18.773 0 34.133-15.291 34.133-34.133 0-18.775-15.36-34.135-34.133-34.135z" />
<glyph unicode="&#xe94e;" glyph-name="arrow-pointing-to-up" d="M113.957 442.469l397.924 352.101 397.924-352.101c26.031-26.031 68.536-26.031 94.433 0 26.298 26.031 26.298 68.268 0.267 94.433l-444.407 393.009c-13.281 13.281-30.682 19.658-48.079 19.391-17.531 0.267-34.932-6.11-48.213-19.391l-444.281-393.009c-26.031-26.031-26.031-68.402 0-94.433s68.402-26.035 94.433 0zM560.098 453.623c-13.281 13.281-30.682 19.658-48.079 19.391-17.531 0.267-34.932-6.11-48.213-19.391l-444.281-392.876c-26.031-26.165-26.031-68.536 0-94.433 26.031-26.165 68.402-26.165 94.433 0l397.924 351.838 397.924-351.838c26.031-26.165 68.536-26.165 94.433 0 26.031 25.901 26.031 68.268 0 94.433l-444.139 392.876z" />
<glyph unicode="&#xe94f;" glyph-name="arrow-right-circle" d="M512 960c-282.761 0-512-229.239-512-512 0-282.829 229.239-512 512-512 282.829 0 512 229.171 512 512 0 282.761-229.171 512-512 512zM672.427 423.765l-221.388-221.388c-13.312-13.243-34.954-13.243-48.264 0-13.312 13.312-13.312 35.021 0 48.264l197.359 197.359-197.359 197.359c-13.312 13.312-13.312 34.954 0 48.264s34.954 13.312 48.264 0l221.388-221.388c6.827-6.69 10.036-15.497 9.966-24.235 0-8.807-3.276-17.545-9.966-24.235z" />
<glyph unicode="&#xe950;" glyph-name="arrow-right-down" d="M874.146 810.043c-200.079 199.943-524.194 199.943-724.138 0s-199.943-524.126 0-724.138c199.943-199.875 524.194-199.875 724.138 0 199.737 200.012 199.737 524.263 0 724.138zM750.998 243.253v-0.137l-2.595-12.833c-3.482-8.261-10.035-15.018-18.499-18.499l-13.037-2.663h-289.71c-18.841 0-34.131 15.428-34.131 34.131 0 18.772 15.29 34.131 34.131 34.131h207.315l-376.13 376.134c-13.312 13.312-13.312 34.952 0 48.262 13.312 13.312 34.952 13.312 48.262 0l376.13-376.13v207.315c0 18.841 15.359 34.131 34.131 34.131 18.703 0 34.131-15.29 34.131-34.131 0.002 0 0.002-289.71 0.002-289.71z" />
<glyph unicode="&#xe951;" glyph-name="arrows-inside-a-circle-pointing-up" d="M512.001 960c-282.761 0-512.001-229.24-512.001-512.001 0-282.829 229.24-512.001 512.001-512.001 282.829 0 512.001 229.172 512.001 512.001-0.002 282.761-229.174 512.001-512.001 512.001zM766.43 215.62c-13.448-13.313-35.226-13.313-48.537 0l-204.526 180.908-204.595-180.908c-13.379-13.313-35.157-13.313-48.537 0-13.379 13.379-13.379 35.226 0 48.537l228.351 202c6.826 6.826 15.77 10.104 24.712 9.966 8.944 0.204 17.886-3.072 24.712-9.898l228.42-201.934c13.379-13.515 13.379-35.224 0-48.672zM766.43 460.425c-13.448-13.379-35.226-13.379-48.537 0l-204.664 180.974-204.526-180.974c-13.379-13.379-35.157-13.379-48.537 0s-13.379 35.157 0 48.537l228.351 202c6.826 6.826 15.77 10.104 24.643 9.966 9.079 0.204 18.023-3.072 24.849-9.898l228.42-202c13.379-13.448 13.379-35.157 0-48.606z" />
<glyph unicode="&#xe952;" glyph-name="arrows-pointing-down" d="M511.999 960c-282.752 0-511.999-229.247-511.999-511.999s229.247-511.999 511.999-511.999 511.999 229.247 511.999 511.999-229.245 511.999-511.999 511.999zM511.999 4.597c-244.476 0-443.404 198.928-443.404 443.404s198.93 443.404 443.404 443.404 443.404-198.928 443.404-443.404-198.928-443.404-443.404-443.404zM713.877 437.984l-205.582-181.78-205.513 181.78c-13.444 13.444-35.327 13.444-48.771 0s-13.444-35.396 0-48.771l229.452-202.975c6.859-6.928 15.846-10.153 24.831-10.014 8.985-0.138 18.041 3.155 24.831 10.014l229.522 202.975c13.377 13.377 13.377 35.327 0 48.771-13.513 13.446-35.394 13.446-48.771 0zM483.395 432.224c6.859-6.928 15.846-10.153 24.831-10.014 8.918-0.138 18.041 3.155 24.831 10.014l229.452 202.908c13.444 13.444 13.444 35.327 0 48.771-13.377 13.444-35.258 13.444-48.635 0l-205.582-181.78-205.513 181.78c-13.513 13.513-35.396 13.513-48.84 0.069s-13.444-35.327 0-48.771l229.455-202.977z" />
<glyph unicode="&#xe953;" glyph-name="arrow-up" d="M512.001 960c-282.761 0-512.001-229.24-512.001-512.001 0-282.829 229.24-512.001 512.001-512.001 282.829 0 512.001 229.172 512.001 512.001-0.002 282.761-229.174 512.001-512.001 512.001zM512.001 4.266c-244.667 0-443.733 199.066-443.733 443.733s199.064 443.735 443.733 443.735 443.733-199.066 443.733-443.733-199.066-443.735-443.733-443.735zM532.479 607.539c-11.605 14.814-30.516 14.814-42.121 0l-0.752-1.366-208.485-263.305c-11.605-14.814-11.605-38.843 0-53.658l0.342-0.273c5.393-7.168 12.903-11.605 21.299-11.605h417.11c8.534 0 16.112 4.642 21.436 12.016l0.137-0.137c11.674 14.814 11.674 38.843 0 53.658l-208.966 264.671z" />
<glyph unicode="&#xe954;" glyph-name="arrow-up-1" d="M512.001 960c-282.761 0-512.001-229.24-512.001-512.001 0-282.829 229.24-512.001 512.001-512.001 282.829 0 512.001 229.172 512.001 512.001-0.002 282.761-229.174 512.001-512.001 512.001zM757.624 338.772c-13.313-13.313-34.953-13.313-48.264 0l-197.359 197.359-197.359-197.359c-13.313-13.313-34.953-13.313-48.264 0-13.313 13.244-13.313 34.953 0 48.264l221.388 221.39c6.691 6.691 15.429 9.966 24.235 9.966s17.544-3.278 24.235-9.966l221.388-221.388c13.313-13.313 13.313-34.885 0-48.266z" />
<glyph unicode="&#xe955;" glyph-name="atomic-symbol-outline" d="M827.597 451.52c17.344 16.639 33.536 33.28 47.871 49.472 80.896 92.096 103.425 167.424 67.136 224.001-15.36 23.872-47.616 52.287-114.24 52.287-41.728 0-95.296-12.223-155.008-33.536-25.791 113.665-73.28 216.256-161.345 216.256-89.599 0-137.217-106.111-162.688-222.144-59.776 20.288-113.536 31.873-155.583 31.873-70.401 0-103.487-29.952-118.783-55.040-49.664-81.407 27.839-184.768 121.407-270.209-17.279-16.704-33.536-33.28-47.809-49.472-80.896-92.096-103.487-167.488-67.136-224.001 15.36-23.872 47.616-52.225 114.176-52.225 41.856 0 95.425 12.161 155.072 33.472 25.791-113.6 73.216-216.256 161.345-216.256 89.599 0 137.279 106.111 162.688 222.144 59.841-20.159 113.471-31.873 155.583-31.873 70.527 0 103.425 30.016 118.783 55.040 49.601 81.411-27.837 184.834-121.47 270.211zM129.549 681.344c10.113 16.512 32.513 24.384 64.128 24.384 36.927 0 86.784-11.265 143.616-31.232-6.849-43.904-11.009-86.719-13.504-123.393-28.608-21.12-55.040-42.497-80.064-63.999-90.304 81.985-137.279 156.417-114.176 194.24zM320.269 423.936l-27.457 21.44 27.328 22.465-0.191-19.841 0.32-24.064zM195.533 182.721c-29.311 0-50.368 7.296-60.352 22.847-23.999 37.312 21.313 113.024 109.76 197.055 27.457-22.465 54.591-42.944 79.039-60.161 2.624-37.823 6.975-81.727 14.209-126.719-56.703-21.055-106.305-33.022-142.656-33.022zM632.332 599.105l-20.352 12.799-35.008 20.417c16.512 8.321 32.64 16.063 48.385 23.167 2.688-18.111 4.992-36.991 6.975-56.383zM511.95 896.001c41.345 0 78.143-69.184 101.568-176-33.665-14.529-68.415-31.488-104.128-50.88-34.241 17.535-67.648 32.896-99.967 46.144 23.294 109.504 60.477 180.736 102.527 180.736zM398.029 650.943l44.736-20.223-34.623-21.184-16.639-11.391c1.79 18.176 3.965 35.775 6.526 52.799zM391.565 296.897l20.352-12.737 35.072-20.352c-16.512-8.321-32.64-16.063-48.447-23.167-2.69 17.92-4.994 36.8-6.977 56.256zM511.95 0.001c-41.407 0-78.143 69.184-101.568 176 33.665 14.529 68.479 31.488 104.128 50.88 34.176-17.473 67.583-32.831 99.967-46.144-23.296-109.504-60.417-180.736-102.527-180.736zM626.061 245.057c-14.591 6.208-29.569 13.057-44.736 20.159l34.623 21.248 16.577 11.391c-1.921-18.176-4.096-35.84-6.464-52.799zM638.349 379.072c-18.496-13.057-37.312-25.92-57.152-38.657-22.72-14.656-45.183-28.033-67.456-40.896-22.592 12.288-45.376 25.28-68.415 39.168-20.608 12.608-40.384 25.409-59.583 38.463-1.087 23.103-1.792 46.655-1.792 70.848 0 23.488 0.705 46.399 1.663 68.928 18.431 13.057 37.312 25.985 57.088 38.719 22.72 14.591 45.183 28.033 67.456 40.832 22.592-12.288 45.376-25.153 68.415-39.168 20.608-12.608 40.384-25.471 59.647-38.399 0.961-23.167 1.728-46.72 1.728-70.912 0-23.486-0.767-46.397-1.599-68.926zM828.3 713.281c29.376 0 50.368-7.36 60.352-22.912 23.999-37.312-21.248-112.895-109.76-197.055-27.519 22.4-54.655 42.879-79.104 60.223-2.624 37.761-6.849 81.792-14.209 126.784 56.897 21.055 106.433 32.96 142.72 32.96zM703.628 472.064l27.457-21.44-27.392-22.465 0.256 19.841-0.32 24.064zM894.349 214.656c-10.113-16.512-32.513-24.384-64.128-24.384-36.865 0-86.655 11.265-143.616 31.232 6.784 43.904 11.009 86.719 13.504 123.393 28.608 21.12 55.040 42.497 80.129 63.999 90.239-82.048 137.215-156.415 114.112-194.24z" />
<glyph unicode="&#xe956;" glyph-name="attention-sign-outline" d="M512 960c-282.752 0-512-229.248-512-512s229.248-512 512-512 512 229.248 512 512-229.248 512-512 512zM512 0.001c-247.039 0-447.999 201.024-447.999 447.999 0 247.039 200.96 447.999 447.999 447.999 246.977 0 447.999-200.96 447.999-447.999 0-246.975-201.024-447.999-447.999-447.999zM512 768.001c-35.328 0-63.999-28.673-63.999-63.999v-319.999c0-35.328 28.673-63.999 63.999-63.999s63.999 28.673 63.999 63.999v319.997c0 35.328-28.671 64.001-63.999 64.001zM575.999 193.025c0-35.346-28.653-63.999-63.999-63.999s-63.999 28.653-63.999 63.999c0 35.346 28.653 63.999 63.999 63.999s63.999-28.653 63.999-63.999z" />
<glyph unicode="&#xe957;" glyph-name="back-arrow-button" d="M512.001 960c-282.761 0-512.001-229.24-512.001-512.001 0-282.829 229.24-512.001 512.001-512.001 282.829 0 512.001 229.172 512.001 512.001-0.002 282.761-229.174 512.001-512.001 512.001zM512.001 4.266c-244.667 0-443.733 199.066-443.733 443.733s199.064 443.735 443.733 443.735 443.733-199.066 443.733-443.733-199.066-443.735-443.733-443.735zM621.228 693.624c-13.313 13.313-34.953 13.313-48.264 0l-221.39-221.39c-6.691-6.691-9.966-15.429-9.966-24.235s3.278-17.544 9.966-24.235l221.388-221.388c13.313-13.244 34.953-13.244 48.264 0 13.313 13.313 13.313 35.020 0 48.264l-197.359 197.359 197.359 197.359c13.313 13.313 13.313 34.953 0.002 48.266z" />
<glyph unicode="&#xe958;" glyph-name="backward-arrow" d="M386.698 447.877l395.417 395.417c26.673 26.673 26.673 70.031 0 96.699s-70.031 26.673-96.699 0l-443.564-443.56c-13.405-13.405-19.968-30.912-19.968-48.556s6.567-35.151 19.968-48.556l443.564-443.422c26.673-26.535 70.031-26.535 96.699 0 26.673 26.673 26.673 70.164 0 96.699l-395.417 395.279z" />
<glyph unicode="&#xe959;" glyph-name="backward-arrow-1" d="M512.033 960c-282.732 0-511.964-229.232-511.964-511.964-0.069-282.871 229.163-512.036 511.964-512.036 282.732 0 511.897 229.232 511.897 511.964 0.069 282.804-229.163 512.036-511.897 512.036zM497.082 197.401c-13.443-13.307-35.325-13.307-48.768 0l-203.030 229.506c-6.859 6.859-10.152 15.914-10.014 24.899-0.069 8.917 3.155 17.902 10.014 24.76l202.961 229.437c13.443 13.443 35.325 13.443 48.768 0 13.512-13.443 13.512-35.325 0-48.768l-181.768-205.499 181.768-205.499c13.512-13.579 13.512-35.391 0.069-48.837zM743.050 197.401c-13.376-13.307-35.394-13.307-48.768 0l-203.030 229.506c-6.859 6.859-10.152 15.914-10.014 24.899-0.069 8.917 3.155 17.902 10.014 24.76l202.894 229.437c13.512 13.443 35.394 13.443 48.768 0 13.512-13.443 13.512-35.325 0-48.768l-181.63-205.499 181.768-205.637c13.441-13.441 13.441-35.253-0.002-48.699z" />
<glyph unicode="&#xe95a;" glyph-name="basket-ball-dribbble-logo" d="M512 960c-282.752 0-512-229.248-512-512s229.248-512 512-512 512 229.248 512 512c0 282.816-229.248 512-512 512zM512 64.896c-211.264 0-383.168 171.904-383.168 383.104s171.904 383.168 383.168 383.168 383.104-171.904 383.104-383.168-171.84-383.104-383.104-383.104zM631.232 409.472c42.879-117.632 60.223-213.376 63.616-233.344 73.345 49.664 125.632 128.32 140.223 219.456-11.073 3.52-101.184 30.401-203.839 13.888zM567.872 393.6c-184.577-64.257-250.879-192.384-256.767-204.351 55.487-43.264 125.247-69.055 200.895-69.055 45.376-0.064 88.64 9.217 127.871 25.985-4.863 28.673-23.872 128.832-69.825 248.191l-2.175-0.769zM604.223 478.016l6.975-16.897c108.928 13.695 217.152-8.256 227.903-10.56-0.64 77.247-28.224 148.223-73.792 203.904-6.784-9.279-61.695-79.615-182.784-129.023 7.618-15.616 14.913-31.488 21.697-47.424zM534.847 444.671l12.928 3.84c-8.256 18.625-17.215 37.247-26.561 55.552-163.455-48.896-322.111-46.848-336.447-46.528l-0.129-9.984c0.064-84.031 31.873-160.831 84.16-218.88 7.424 12.674 97.217 161.474 266.048 216zM494.207 554.431c-54.273 96.448-112.704 177.472-121.345 189.313-91.584-43.2-160.064-127.615-181.248-229.184 14.658-0.191 149.506-0.767 302.593 39.871zM729.023 692.353c-57.92 51.264-133.824 82.497-217.023 82.497-26.367 0-52.096-3.135-76.671-9.088 9.023-12.161 68.479-93.119 122.112-191.616 116.415 43.582 165.63 109.822 171.582 118.207z" />
<glyph unicode="&#xe95b;" glyph-name="black-arrow" d="M802.519 316.128l-532.147 632.486c-8.702 10.302-22.909 14.078-35.45 9.407-12.607-4.608-21.054-16.64-21.054-30.076v-834.887c0-13.887 8.83-26.045 21.949-30.459l10.047-1.537c9.919 0 19.518 4.543 25.66 12.927l143.083 192.74 99.251-283.991c12.735-36.284 52.536-55.544 88.883-42.809 36.284 12.67 55.608 52.473 42.875 88.947l-97.394 278.615 223.839-43.386c13.501-2.623 26.877 3.648 33.659 15.23 6.845 11.775 5.694 26.43-3.2 36.795z" />
<glyph unicode="&#xe95c;" glyph-name="black-cart" d="M248.62 321.768l-14.666-65.901h686.553c17.612 0 32.022-14.41 32.022-32.022s-14.41-32.022-32.022-32.022h-726.518c-9.735 0-18.893 4.355-24.977 12.040-6.084 7.494-8.391 17.42-6.277 26.899l32.598 146.726-1.344 6.468-55.654 278.206-39.772 170.101h-66.542c-17.741 0-32.022 14.347-32.022 32.022s14.345 32.022 32.022 32.022h91.904c14.922 0 27.796-10.247 31.189-24.721l24.85-106.185 14.025 2.817h768.53c35.479 0 75.060-24.016 56.936-81.208l-103.944-319.067c-17.035-41.053-38.426-48.033-73.651-48.033h-583.826l-9.414 1.858zM258.035 127.779c-35.353 0-64.043-28.693-64.043-64.043 0-35.353 28.693-64.043 64.043-64.043s64.043 28.693 64.043 64.043c0 35.351-28.691 64.043-64.043 64.043zM834.432 127.779c-35.417 0-64.045-28.693-64.045-64.043 0-35.353 28.628-64.043 64.045-64.043 35.288 0 64.043 28.693 64.043 64.043s-28.755 64.043-64.043 64.043z" />
<glyph unicode="&#xe95d;" glyph-name="black-gallon" d="M128 0.001c0-25.856 15.616-49.281 39.488-59.136 7.936-3.264 16.256-4.863 24.513-4.863 16.639 0 33.024 6.528 45.248 18.751l274.751 274.751 274.751-274.751c12.223-12.223 28.608-18.751 45.248-18.751 8.256 0 16.577 1.601 24.448 4.863 23.937 9.855 39.553 33.28 39.553 59.136v768h-768v-768zM831.999 960h-640c-35.326 0-63.999-28.673-63.999-63.999v-63.999h768v63.999c0 35.326-28.673 63.999-64.001 63.999z" />
<glyph unicode="&#xe95e;" glyph-name="blogger-botton" d="M512 960c-282.752 0-512-229.248-512-512s229.248-512 512-512 512 229.248 512 512c0 282.816-229.248 512-512 512zM831.103 334.849c0-113.791-92.607-206.016-207.295-206.016h-223.425c-114.561 0-207.615 92.096-207.615 206.016v226.175c0.064 113.856 92.992 206.143 207.615 206.143h104.639c114.688 0 206.463-85.632 206.463-199.488 1.472-21.313 20.737-39.871 42.624-39.871h35.775c22.912 0 41.281-24.064 41.281-46.784l-0.062-146.176zM631.679 368.192h-239.359c-21.951 0-39.871-17.92-39.871-39.873 0-21.889 17.984-39.871 39.871-39.871h239.359c21.951 0 39.871 17.984 39.871 39.871 0.002 21.953-17.92 39.873-39.871 39.873zM392.321 527.808h119.679c21.951 0 39.871 17.984 39.871 39.871 0 21.951-17.984 39.871-39.871 39.871h-119.679c-21.951 0-39.871-17.984-39.871-39.871-0.066-21.951 17.918-39.871 39.871-39.871z" />
<glyph unicode="&#xe95f;" glyph-name="blogger-logo" d="M831.999 960h-640c-106.047 0-191.999-85.952-191.999-191.999v-640c0-106.049 85.952-191.999 191.999-191.999h640c106.049 0 191.999 85.952 191.999 191.999v640c0.002 106.047-85.95 191.999-191.999 191.999zM831.103 334.849c0-113.791-92.607-206.016-207.295-206.016h-223.425c-114.561 0-207.615 92.096-207.615 206.016v226.175c0.064 113.856 92.992 206.143 207.615 206.143h104.639c114.688 0 206.463-85.632 206.463-199.488 1.472-21.313 20.737-39.871 42.624-39.871h35.775c22.912 0 41.281-24.064 41.281-46.784l-0.062-146.176zM631.679 368.192h-239.359c-21.951 0-39.871-17.92-39.871-39.873 0-21.889 17.984-39.871 39.871-39.871h239.359c21.951 0 39.871 17.984 39.871 39.871 0.002 21.953-17.92 39.873-39.871 39.873zM392.321 527.808h119.679c21.951 0 39.871 17.984 39.871 39.871 0 21.951-17.984 39.871-39.871 39.871h-119.679c-21.951 0-39.871-17.984-39.871-39.871-0.066-21.951 17.918-39.871 39.871-39.871z" />
<glyph unicode="&#xe960;" glyph-name="blogger-logo-silhouette" d="M957.76 576h-57.408c-35.137 0-65.92 29.76-68.353 63.999 0 182.658-147.263 320.001-331.199 320.001h-167.809c-183.807 0-332.862-148.032-332.991-330.688v-362.816c0-182.655 149.184-330.496 332.991-330.496h358.4c183.936 0 332.609 147.903 332.609 330.559v234.369c-0.064 36.48-29.505 75.072-66.24 75.072zM319.937 704h191.999c35.199 0 64.001-28.8 64.001-63.999s-28.8-63.999-63.999-63.999h-191.999c-35.199 0-63.999 28.8-63.999 63.999s28.796 63.999 63.997 63.999zM703.937 192h-384c-35.199 0-63.999 28.8-63.999 63.999s28.8 64.001 63.999 64.001h384c35.199 0 63.999-28.8 63.999-64.001 0-35.199-28.8-63.999-63.999-63.999z" />
<glyph unicode="&#xe961;" glyph-name="boat-lifesaver" d="M874.071 810.049c-100.032 99.967-231.038 149.951-362.047 149.951s-262.144-49.984-362.049-149.951c-199.935-199.935-199.935-524.159 0-724.096 99.967-99.967 231.040-149.951 362.047-149.951s262.144 49.984 362.047 149.951c199.875 199.935 199.875 524.159 0.002 724.096zM512.024 896.001c69.887 0 137.152-16.321 197.951-46.399l-98.751-98.751c-32.255 10.56-65.6 17.153-99.2 17.153-30.656 0-60.864-5.824-90.495-14.529l-99.903 99.841c58.878 27.581 123.453 42.686 190.398 42.686zM110.425 249.984c-30.080 60.864-46.399 128.129-46.399 198.016 0 66.943 15.040 131.455 42.753 190.271l99.903-99.841c-18.304-62.080-17.473-128 2.559-189.695l-98.816-98.751zM512.024 0.001c-64.063 0-125.823 13.76-182.655 39.104l100.864 100.864c26.816-7.104 54.144-12.032 81.727-12.032 30.656 0 60.864 5.824 90.495 14.656l99.903-99.903c-58.878-27.585-123.391-42.688-190.334-42.688zM693.016 267.008c-48.32-48.385-112.704-75.008-180.992-75.008s-132.672 26.625-180.992 75.008c-48.385 48.32-75.008 112.64-75.008 180.992s26.625 132.672 75.008 180.992c48.32 48.385 112.64 75.008 180.992 75.008 68.288 0 132.672-26.625 180.992-75.008 48.385-48.32 75.008-112.64 75.008-180.992s-26.625-132.672-75.008-180.992zM817.432 357.505c16.639 56.256 17.473 115.584 2.559 172.225l100.672 100.672c52.608-118.463 51.456-254.913-3.649-372.544l-99.583 99.647z" />
<glyph unicode="&#xe962;" glyph-name="bolt-silhouette" d="M592.576 407.297l111.168-7.296c6.849 12.096 13.312 24.704 19.007 37.888 5.697 13.119 10.368 26.432 14.529 39.809l-81.472 75.839c2.753 21.695 3.135 43.328 1.152 64.639l83.52 73.28c-7.424 27.328-17.92 53.697-31.232 78.657l-111.232-4.031c-13.119 16.959-28.224 32.449-45.121 46.273l7.231 111.168c-12.096 6.913-24.768 13.312-37.888 19.007-13.119 5.632-26.432 10.368-39.809 14.464l-75.775-81.601c-21.695 2.753-43.328 3.135-64.639 1.025l-73.471 83.582c-27.328-7.489-53.697-17.984-78.657-31.297l4.031-111.041c-16.957-13.119-32.447-28.222-46.27-45.119l-111.168 7.231c-6.913-12.161-13.312-24.704-19.007-37.888-5.632-13.119-10.368-26.432-14.464-39.809l81.601-75.839c-2.753-21.695-3.135-43.328-1.025-64.639l-83.584-73.28c7.489-27.263 17.984-53.695 31.297-78.719l111.041 4.096c13.119-16.959 28.288-32.449 45.183-46.273l-7.296-111.168c12.161-6.849 24.704-13.312 37.888-19.007 13.119-5.697 26.432-10.368 39.809-14.529l75.839 81.472c21.695-2.753 43.328-3.135 64.639-1.025l73.28-83.649c27.328 7.424 53.695 17.92 78.657 31.232l-4.031 111.232c16.959 13.248 32.447 28.417 46.27 45.314zM294.079 413.568c-97.406 41.983-142.271 154.945-100.288 252.353 41.983 97.344 154.943 142.271 252.351 100.288 97.344-41.983 142.209-154.943 100.288-252.351-41.981-97.41-154.943-142.209-252.351-100.29zM466.112 589.888c0-53.020-42.981-96.001-96.001-96.001s-96.001 42.981-96.001 96.001c0 53.020 42.981 96.001 96.001 96.001s96.001-42.981 96.001-96.001zM1022.655 135.361l1.343 24.639-1.343 24.704-61.248 21.824-26.496 9.344 12.032 25.471 27.839 58.496c-10.24 12.799-22.016 24.639-34.879 35.008l-83.969-40-9.344 26.496-21.76 61.248-24.833 1.408-24.768-1.343-21.76-61.248-9.344-26.496-25.471 12.032-58.496 27.839c-12.863-10.24-24.639-22.080-35.008-34.879l40-84.033-87.744-31.168-1.408-24.704 1.343-24.639 87.744-31.168-12.032-25.409-27.839-58.624c10.24-12.801 22.016-24.513 34.879-34.879l84.033 39.871 9.408-26.496 21.76-61.248 24.704-1.408 24.768 1.343 21.76 61.248 9.344 26.496 25.471-12.032 58.496-27.839c12.863 10.24 24.639 22.016 35.008 34.879l-27.968 58.624-12.032 25.344 26.496 9.344 61.313 21.955zM799.999 112c-26.496 0-48 21.504-48 48s21.504 48 48 48 48-21.504 48-48-21.504-48-48-48z" />
<glyph unicode="&#xe963;" glyph-name="book-information" d="M929.343 960h-703.999c-88.32 0-159.808-70.976-161.087-158.977l-0.256 0.32v-703.999c0-89.088 72.255-161.345 161.345-161.345h543.999c35.328 0 62.656 28.673 62.656 63.999v672.002c0 17.664-12.992 31.999-30.656 31.999h-576.001c-53.697 0-97.344 41.025-97.344 94.655 0 53.697 43.649 97.344 97.344 97.344h670.656v-736.001c0-17.6 15.681-31.999 33.345-31.999s30.656 14.4 30.656 31.999v768.002c-0.002 17.664-12.994 31.999-30.658 31.999zM225.344 640.001h542.719l1.343-640h-543.997c-53.759 0-97.408 43.649-97.408 97.344v573.951c26.881-19.712 60.479-31.295 97.344-31.295z" />
<glyph unicode="&#xe964;" glyph-name="box-outline" d="M959.999 896.001h-896c-35.326 0-63.999-28.673-63.999-64.001v-128h1024v128c0 35.328-28.673 64.001-64.001 64.001zM959.999 768.001h-896v63.999h896v-63.999zM63.999 64c0-35.328 28.673-63.999 63.999-63.999h768c35.328 0 63.999 28.673 63.999 63.999v576.001h-895.998v-576.001zM128 576h768v-512h-768v512zM671.999 512.001h-319.999c-17.664 0-31.999-14.335-31.999-31.999 0-17.6 14.335-31.999 31.999-31.999h319.999c17.6 0 31.999 14.4 31.999 31.999 0 17.662-14.4 31.999-31.999 31.999z" />
<glyph unicode="&#xe965;" glyph-name="calendar" d="M1020.224 780.033c-8.127 26.047-31.488 45.312-60.223 45.312h-63.999v-99.327c0-52.928-43.073-96.001-96.001-96.001s-96.001 43.073-96.001 96.001v99.327h-384.322v-99.327c0-52.928-43.073-96.001-96.001-96.001s-96.001 43.073-96.001 96.001v99.327h-63.679c-28.735 0-52.161-19.265-60.223-45.312h-3.776v-780.032c0-35.328 28.673-63.999 63.999-63.999h896c35.328 0 63.999 28.673 63.999 63.999v780.032h-3.774zM959.999 0.001h-896v512h896v-512zM223.68 694.016c17.664 0 31.999 14.335 31.999 31.999v201.985c0 17.664-14.335 31.999-31.999 31.999s-31.999-14.335-31.999-31.999v-201.985c0-17.664 14.335-31.999 31.999-31.999zM799.999 694.016c17.6 0 31.999 14.335 31.999 31.999v201.985c0 17.664-14.4 31.999-31.999 31.999s-31.999-14.335-31.999-31.999v-201.985c0-17.664 14.4-31.999 31.999-31.999z" />
<glyph unicode="&#xe966;" glyph-name="caution-sign" d="M1005.247 678.785l-262.399 262.464c-12.032 12.032-28.288 18.751-45.376 18.751h-371.008c-16.959 0-33.28-6.72-45.248-18.751l-262.399-262.464c-12.096-11.969-18.816-28.224-18.816-45.248v-371.137c0-16.959 6.72-33.28 18.751-45.248l262.399-262.464c12.032-11.967 28.288-18.689 45.312-18.689h371.137c16.959 0 33.28 6.72 45.248 18.751l262.399 262.528c12.032 11.967 18.751 28.159 18.751 45.248v371.010c0.002 16.959-6.718 33.278-18.751 45.248zM959.999 262.529l-262.528-262.528h-371.008l-262.464 262.528v371.008l262.464 262.464h371.137l262.399-262.464v-371.008zM512 768.001c-35.328 0-63.999-28.673-63.999-63.999v-319.999c0-35.328 28.673-63.999 63.999-63.999s63.999 28.673 63.999 63.999v319.997c0 35.328-28.671 64.001-63.999 64.001zM575.999 192c0-35.346-28.653-63.999-63.999-63.999s-63.999 28.653-63.999 63.999c0 35.346 28.653 63.999 63.999 63.999s63.999-28.653 63.999-63.999z" />
<glyph unicode="&#xe967;" glyph-name="chat-conversation" d="M1024 358.497c0 91.391-51.007 172.864-130.88 227.456 5.632-25.344 8.897-51.392 8.897-78.144 0-206.591-175.361-378.815-406.272-415.807 48.832-19.712 103.488-31.232 161.855-31.232 54.847 0 106.88 10.112 153.6 27.84 59.393-20.16 124.097-25.409 177.664-25.409-27.969 33.344-47.167 66.113-60.993 94.911 59.519 52.864 96.128 123.071 96.128 200.384zM806.015 507.809c0 180.801-180.352 327.424-403.007 327.424-222.593-0.002-403.009-146.626-403.009-327.424 0-94.336 49.344-179.072 127.937-238.783-14.783-38.144-39.807-87.999-82.239-139.009 80.513 0 184.193 10.495 264 59.647 30.015-5.889 61.184-9.28 93.311-9.28 222.591 0 403.007 146.623 403.007 327.424z" />
<glyph unicode="&#xe968;" glyph-name="check-button" d="M512 960c-282.752 0-512-229.248-512-512s229.248-512 512-512 512 229.248 512 512-229.248 512-512 512zM512 0.001c-247.039 0-447.999 201.024-447.999 447.999 0 247.039 200.96 447.999 447.999 447.999 246.977 0 447.999-200.96 447.999-447.999 0-246.975-201.151-447.999-447.999-447.999zM736.256 651.648c-20.608 13.568-48.447 7.745-62.016-12.992l-216.065-330.176-103.296 95.616c-18.176 16.768-46.528 15.681-63.361-2.497s-15.681-46.464 2.497-63.296l142.784-132.031 1.663-1.087 3.391-3.455 6.144-2.368 7.36-3.008 7.489-1.216 10.751 0.129 4.352 1.087 12.543 5.248 1.983 1.343 7.68 5.568 3.584 5.952 0.191 0.256 245.247 374.719c13.572 20.868 7.747 48.643-12.924 62.211z" />
<glyph unicode="&#xe969;" glyph-name="checked-box" d="M866.411 14.793h-787.648v787.648h580.969l49.149 78.764h-630.118c-43.476 0.002-78.764-35.285-78.764-78.764v-787.648c0-43.478 35.288-78.764 78.764-78.764h787.648c43.478 0 78.764 35.288 78.764 78.764v520.084l-78.764-126.259v-393.825zM999.052 950.992c-9.373 6.064-19.848 8.979-30.168 8.979-17.957 0-35.523-8.823-46.157-24.968l-428.166-617.672-165.643 189.035c-22.448 20.716-57.262 19.375-77.978-2.994s-19.298-57.262 3.073-77.899l208.963-238.499 2.047-1.261 4.173-4.173 10.79-4.961 2.441-1.182 16.934-2.914 0.709 0.159c14.966-0.079 29.853 5.435 40.799 17.328l4.491 7.246 0.235 0.315 469.446 677.217c16.619 25.362 9.452 59.547-15.99 76.246z" />
<glyph unicode="&#xe96a;" glyph-name="check-sign" d="M512 960c-282.752 0-512-229.248-512-512s229.248-512 512-512 512 229.248 512 512-229.248 512-512 512zM749.184 589.633l-245.438-374.977-3.584-5.952-7.68-5.568-1.983-1.343-12.543-5.248-4.352-1.025-10.751-0.256-7.489 1.281-7.36 2.88-6.144 2.433-3.391 3.393-1.663 1.025-142.784 132.031c-18.176 16.832-19.265 45.183-2.497 63.296 16.768 18.111 45.121 19.265 63.296 2.497l103.361-95.616 215.996 330.172c13.568 20.673 41.343 26.496 62.016 12.992 20.735-13.568 26.561-41.343 12.992-62.016z" />
<glyph unicode="&#xe96b;" glyph-name="check-sign-1" d="M994.449 946.189c-29.952 19.72-70.415 11.256-90.135-18.883l-511.884-820.427-283.151 275.336c-26.417 24.558-67.532 22.881-91.996-3.536-24.371-26.323-22.791-67.625 3.629-91.903l340.635-331.427 2.417-1.58 4.929-5.116 8.929-3.348 10.697-4.466 10.885-1.674 15.626 0.187 6.325 1.49 18.231 7.627 2.883 2.046 11.163 8.092 5.21 8.558 0.278 0.372 554.208 888.424c19.726 30.14 11.353 70.511-18.877 90.229z" />
<glyph unicode="&#xe96c;" glyph-name="circle" d="M512 960c-282.795 0-512-229.205-512-512s229.205-512 512-512 512 229.205 512 512-229.205 512-512 512zM512 21.333c-235.264 0-426.667 191.403-426.667 426.667s191.403 426.667 426.667 426.667 426.667-191.403 426.667-426.667-191.403-426.667-426.667-426.667z" />
<glyph unicode="&#xe96d;" glyph-name="circle-with-a-down-arrow" d="M512.001 960c-282.761 0-512.001-229.24-512.001-512.001 0-282.829 229.24-512.001 512.001-512.001 282.829 0 512.001 229.172 512.001 512.001-0.002 282.761-229.174 512.001-512.001 512.001zM512.001 4.266c-244.667 0-443.733 199.066-443.733 443.733s199.064 443.735 443.733 443.735 443.733-199.066 443.733-443.733-199.066-443.735-443.733-443.735zM741.854 538.863c-5.393 7.099-12.903 11.537-21.368 11.537h-417.11c-8.534 0-16.112-4.71-21.503-12.016l-0.137 0.137c-11.605-14.814-11.605-38.843 0-53.658l209.033-264.671c11.605-14.883 30.516-14.883 42.121 0l0.818 1.433 208.554 263.236c11.605 14.814 11.605 38.843 0 53.658l-0.408 0.344z" />
<glyph unicode="&#xe96e;" glyph-name="circular-clock" d="M874.040 810.042c-99.973 99.973-231.006 149.958-362.040 149.958s-262.069-49.985-362.042-149.958c-199.946-199.946-199.946-524.205 0-724.012 100.042-99.973 231.006-150.027 362.042-150.027s262.069 49.985 362.040 150.027c199.946 200.013 199.946 524.136 0 724.012zM825.562 134.574c-83.79-83.79-195.076-130.006-313.562-130.006-118.417 0-229.772 46.214-313.562 130.006-83.721 83.79-129.868 195.076-129.868 313.493 0 118.486 46.147 229.772 129.868 313.562 83.859 83.721 195.215 129.868 313.562 129.868s229.772-46.147 313.562-129.868 129.868-195.146 129.868-313.562-46.147-229.839-129.868-313.493zM715.441 484.616h-171.42v240.469c0 18.925-15.359 34.284-34.284 34.284-18.787 0-34.284-15.359-34.284-34.284v-274.752c0-18.856 15.428-34.284 34.284-34.284h205.704c18.925 0 34.284 15.428 34.284 34.284 0.002 18.925-15.359 34.284-34.284 34.284z" />
<glyph unicode="&#xe96f;" glyph-name="circular-light-bulb" d="M512 960c-211.302 0-383.258-171.954-383.258-383.258 0-123.538 60.045-240.175 160.712-312.035l4.728-3.131c23.378-13.734 25.679-57.935 25.166-66.048l-0.128-4.024v-125.773c0-24.017 13.414-45.927 34.813-56.914l128.902-65.792c9.134-4.663 19.098-7.027 29.064-7.027 9.838 0 19.737 2.299 28.808 6.835l130.436 65.857c21.527 10.859 35.067 32.897 35.067 57.042v125.069c0 63.045 38.518 83.871 38.837 83.997l14.181 9.134c86.424 73.137 135.928 179.747 135.928 292.808 0 211.304-171.891 383.258-383.258 383.258zM512-0.123l-128.839 65.857h259.273l-130.434-65.857zM642.371 190.803v-61.194h-259.273v61.896l0.063 1.979h259.466l-0.256-2.681zM718.128 332.735c0 0-42.798-19.993-64.003-75.373h-281.247c-7.922 22.101-21.653 44.84-46.311 59.406-81.059 57.807-133.947 152.726-133.947 259.974 0 176.362 143.018 319.38 319.38 319.38 176.425 0 319.38-143.018 319.38-319.38 0-97.858-44.010-185.368-113.252-244.007zM543.939 832.247c-17.566 0-31.939-14.307-31.939-31.939s14.372-31.939 31.939-31.939c71.86 0 159.691-65.346 159.691-162.692 0-17.629 14.372-31.939 31.939-31.939s31.939 14.307 31.939 31.939c-0.002 145.701-113.767 226.569-223.569 226.569z" />
<glyph unicode="&#xe970;" glyph-name="circular-menu-button" d="M512.001 960c-282.761 0-512.001-229.24-512.001-512.001 0-282.829 229.24-512.001 512.001-512.001 282.829 0 512.001 229.172 512.001 512.001-0.002 282.761-229.174 512.001-512.001 512.001zM785.068 209.067h-546.134c-18.842 0-34.133 15.36-34.133 34.133s15.291 34.133 34.133 34.133h546.134c18.773 0 34.133-15.36 34.133-34.133s-15.36-34.133-34.133-34.133zM785.068 413.866h-546.134c-18.842 0-34.133 15.36-34.133 34.133 0 18.842 15.291 34.133 34.133 34.133h546.134c18.773 0 34.133-15.291 34.133-34.133 0-18.773-15.36-34.133-34.133-34.133zM785.068 618.667h-546.134c-18.842 0-34.133 15.291-34.133 34.133s15.291 34.133 34.133 34.133h546.134c18.773 0 34.133-15.291 34.133-34.133s-15.36-34.133-34.133-34.133z" />
<glyph unicode="&#xe971;" glyph-name="circular-pie-chart" d="M512 960c-282.752 0-512-229.248-512-512s229.248-512 512-512c165.056 0 311.487 78.528 405.12 199.744l-405.12 312.256v512zM600 951.424v-457.92l365.569-281.727c37.12 70.656 58.431 150.847 58.431 236.224 0 252.671-183.233 461.632-424 503.424z" />
<glyph unicode="&#xe972;" glyph-name="close-button" d="M512.001 960c-282.761 0-512.001-229.24-512.001-512.001 0-282.829 229.24-512.001 512.001-512.001 282.829 0 512.001 229.172 512.001 512.001-0.002 282.761-229.174 512.001-512.001 512.001zM749.228 636.961l-190.26-190.329 168.413-187.596c13.313-13.313 13.313-35.020 0-48.264-13.244-13.313-34.953-13.313-48.195 0l-168.413 187.596-187.665-187.596c-13.313-13.313-34.953-13.313-48.264 0-13.313 13.244-13.313 34.953 0 48.264l190.26 190.26-168.347 187.665c-13.313 13.313-13.313 34.953 0 48.264s34.953 13.313 48.264 0l168.413-187.665 187.596 187.665c13.313 13.313 34.953 13.313 48.264 0 13.313-13.311 13.244-34.951-0.067-48.264z" />
<glyph unicode="&#xe973;" glyph-name="close-button-1" d="M512 960c-282.761 0-512-229.239-512-512 0-282.829 229.239-512 512-512 282.829 0 512 229.171 512 512 0 282.761-229.171 512-512 512zM512 4.266c-244.668 0-443.734 199.066-443.734 443.734s199.066 443.734 443.734 443.734 443.734-199.066 443.734-443.734-199.066-443.734-443.734-443.734zM700.963 685.226l-187.597-187.665-168.345 187.665c-13.312 13.312-34.954 13.312-48.264 0-13.312-13.312-13.312-34.954 0-48.264l168.345-187.665-190.258-190.258c-13.312-13.312-13.312-35.021 0-48.264 13.312-13.312 34.954-13.312 48.264 0l187.665 187.597 168.345-187.597c13.243-13.312 34.954-13.312 48.196 0 13.312 13.245 13.312 34.954 0 48.264l-168.413 187.597 190.258 190.328c13.312 13.312 13.312 34.954 0 48.264s-34.884 13.31-48.196-0.002z" />
<glyph unicode="&#xe974;" glyph-name="closed-lock" d="M896 576h-64.001v59.072c0 179.456-143.232 324.928-319.999 324.928-176.705 0-320.001-145.473-320.001-324.928v-59.072h-63.999c-35.328 0-63.999-28.673-63.999-63.999v-512c0-35.328 28.673-63.999 63.999-63.999h768c35.328 0 63.999 28.673 63.999 63.999v512c0 35.328-28.671 63.999-63.999 63.999zM256 635.072c0 143.872 114.816 260.927 256 260.927s256-117.056 256-260.927v-59.072h-512v59.072zM896 0.001h-768v512h768v-512zM512 128.001c70.721 0 128 57.279 128 128s-57.279 128-128 128-128-57.279-128-128 57.279-128 128-128zM512 320c35.264 0 63.999-28.735 63.999-64.001 0-35.264-28.735-63.999-63.999-63.999s-63.999 28.735-63.999 63.999c-0.002 35.266 28.735 64.001 63.999 64.001z" />
<glyph unicode="&#xe975;" glyph-name="cloud-arrow-donwload" d="M831.999 448l-6.528-0.64c4.287 20.864 6.528 42.497 6.528 64.639 0 176.703-143.232 319.999-319.999 319.999-176.703 0-319.999-143.296-319.999-319.999l0.32-3.2c-108.546-15.487-192.321-107.903-192.321-220.799 0-112.768 83.584-205.12 191.999-220.801v-3.2h320.001l-199.808 256h135.807v256c0 35.328 28.673 63.999 63.999 63.999s63.999-28.673 63.999-63.999v-256h135.807l-199.808-256h319.999c106.049 0 191.999 85.952 191.999 191.999s-85.946 192.001-191.995 192.001z" />
<glyph unicode="&#xe976;" glyph-name="compass-east" d="M512 960c-282.752 0-512-229.248-512-512s229.248-512 512-512 512 229.248 512 512-229.248 512-512 512zM763.135 655.039l-124.031-198.656 0.896-8.383c0-70.721-57.279-128-128-128l-8.383 0.896-79.553-49.537-119.104-74.367c-5.183-3.391-11.071-4.992-16.959-4.992-8.256 0-16.448 3.2-22.656 9.344-10.56 10.495-12.416 26.881-4.48 39.488l123.967 198.592-0.832 8.576c0 70.721 57.279 128 128 128l8.383-0.832 198.592 123.967c12.481 7.872 28.991 6.017 39.615-4.545 10.689-10.493 12.481-26.879 4.545-39.551zM575.999 448c0-35.346-28.653-63.999-63.999-63.999s-63.999 28.653-63.999 63.999c0 35.346 28.653 63.999 63.999 63.999s63.999-28.653 63.999-63.999z" />
<glyph unicode="&#xe977;" glyph-name="computer-mouse-cursor" d="M802.538 316.065l-532.147 632.549c-8.702 10.302-22.846 14.078-35.45 9.407-12.607-4.608-21.052-16.638-21.052-30.076v-834.887c0-13.887 8.83-26.045 21.949-30.459l10.047-1.537c9.919 0 19.518 4.543 25.66 12.927l143.083 192.74 99.251-283.991c12.733-36.284 52.536-55.544 88.883-42.809 36.284 12.67 55.608 52.473 42.875 88.947l-97.394 278.615 223.839-43.386c13.373-2.688 26.877 3.583 33.659 15.101 6.845 11.841 5.566 26.493-3.202 36.861zM450.269 391.702c-12.093 2.431-24.445-2.431-31.739-12.35l-140.588-189.412v650.336l417.475-496.057-245.148 47.482z" />
<glyph unicode="&#xe978;" glyph-name="computer-screen" d="M959.999 896.001h-896c-35.326 0-63.999-28.673-63.999-64.001v-575.999c0-35.328 28.673-63.999 63.999-63.999h319.937c-0.129-46.273-1.983-106.367-19.521-128h-12.928c-17.408 0-31.488-14.4-31.488-31.999s14.080-31.999 31.488-31.999h320.96c17.408 0 31.552 14.4 31.552 31.999s-14.144 31.999-31.488 31.999h-12.863c-17.535 21.631-19.456 81.727-19.583 128h319.937c35.328 0 63.999 28.673 63.999 63.999v575.999c0 35.328-28.673 64.001-64.001 64.001zM959.999 320h-896v512h896v-512z" />
<glyph unicode="&#xe979;" glyph-name="condense-button-arrows-in-a-square" d="M959.999 960h-896c-35.326 0-63.999-28.673-63.999-63.999v-896c0-35.328 28.673-63.999 63.999-63.999h896c35.328 0 63.999 28.673 63.999 63.999v896c0.002 35.326-28.671 63.999-63.999 63.999zM447.999 96.002c0-17.6-14.335-31.999-31.999-31.999s-31.999 14.4-31.999 31.999v178.751l-201.345-201.345c-12.481-12.416-32.769-12.416-45.248 0-12.481 12.481-12.481 32.831 0 45.248l201.345 201.345h-178.753c-17.664 0-31.999 14.4-31.999 31.999s14.335 31.999 31.999 31.999h256l12.223-2.497c7.807-3.264 14.080-9.472 17.279-17.279l2.497-12.223v-255.998zM863.998 512.001h-256l-12.223 2.497-10.175 6.72-0.256 0.129-0.191 0.385-6.655 10.048-2.497 12.096v256.125c0 17.664 14.4 31.999 31.999 31.999s31.999-14.335 31.999-31.999v-178.751l201.345 201.345c12.416 12.481 32.769 12.481 45.248 0 12.416-12.481 12.416-32.769 0-45.248l-201.345-201.345h178.751c17.6 0 31.999-14.335 31.999-31.999 0.002-17.666-14.398-32.002-31.999-32.002z" />
<glyph unicode="&#xe97a;" glyph-name="condensing-arrows" d="M1013.31 949.248c-14.116 14.264-37.449 14.264-51.711 0l-303.318-303.318v204.283c0 20.187-16.457 36.57-36.57 36.57s-36.57-16.383-36.57-36.57v-292.711l2.854-13.824 7.898-11.923 0.292-0.147 11.557-7.679 13.969-2.854h292.566c20.113 0 36.57 16.383 36.57 36.57s-16.457 36.57-36.57 36.57h-204.283l303.244 303.244c14.335 14.339 14.335 37.454 0.071 51.789zM416.257 371.943l-13.969 2.854h-292.566c-20.187 0-36.57-16.53-36.57-36.57 0-20.113 16.383-36.57 36.57-36.57h204.283l-303.244-303.247c-14.335-14.19-14.335-37.449-0.074-51.711 14.264-14.19 37.449-14.19 51.711 0l303.318 303.244v-204.283c0-20.113 16.383-36.57 36.57-36.57s36.57 16.457 36.57 36.57v292.566l-2.854 13.898c-3.728 8.92-10.821 16.162-19.745 19.819z" />
<glyph unicode="&#xe97b;" glyph-name="contacts-agenda" d="M0 896.001v-896c0-35.328 28.673-63.999 63.999-63.999h63.999v1023.998h-63.999c-35.326 0-63.999-28.673-63.999-63.999zM831.999 960h-640v-1024h640c35.328 0 64.001 28.673 64.001 63.999v896.002c0 35.326-28.673 63.999-64.001 63.999zM540.48 713.344c53.504 0 96.832-43.393 96.832-96.832 0-53.504-43.455-96.897-96.832-96.897-53.504 0-96.897 43.393-96.897 96.897s43.393 96.832 96.897 96.832zM384 268.353c0 117.311 70.976 212.48 158.527 212.48 87.424 0 158.463-95.231 158.463-212.48-0.062-117.376-316.991-117.376-316.991 0zM959.999 896.001h63.999v-191.999h-63.999v191.999zM959.999 640.001h63.999v-191.999h-63.999v191.999zM959.999 384.001h63.999v-191.999h-63.999v191.999z" />
</font>
</defs>
</svg>
